Riot of Color
TAG

ADVANCED

Level: 8
BPM: 150
Notes: 561

1
口口口口 |----|
口口口口 |----|
口口口口 |----|
口口口口 |----|
2
①②口③ |①②-③|
④⑤口⑥ |--④⑤|
⑦⑧口⑨ |-⑥--|
口口口口 |⑦⑧-⑨|
3
口口口口 |--①②|
口⑤④口 |-③--|
口⑦⑥口 |④-⑤-|
①②口③ |⑥-⑦-|
4
①②口③ |①②-③|
④⑤口⑥ |--④⑤|
⑦⑧口⑨ |-⑥--|
口口口口 |⑦⑧-⑨|
5
口口口口 |--①②|
口⑤⑦口 |-③--|
口④⑥口 |④-⑤-|
①②口③ |⑥-⑦-|
6
①②口③ |①②-③|
④⑤口⑥ |--④⑤|
⑦⑧口⑨ |-⑥--|
口口口口 |⑦⑧-⑨|
7
口口口口 |--①②|
口⑤④口 |-③--|
口⑦⑥口 |④-⑤-|
①②口③ |⑥-⑦-|
8
①②口③ |①②-③|
④⑤口⑥ |--④⑤|
⑦⑧口⑨ |-⑥--|
口口口口 |⑦⑧-⑨|
9
口口口口 |--①②|
口⑤⑦口 |-③--|
口④⑥口 |④-⑤-|
①②口③ |⑥-⑦-|
10
①口口① |①--②|
口口口口 |--③-|
②口口② |----|
口③③口 |----|
11
⑧⑦⑥口 |--①②|
口②⑨④ |③④-⑤|
①口③口 |-⑥⑦-|
口⑤⑤口 |⑧-⑨-|
12
口口口口 |①--②|
②口口② |--③-|
①口口口 |----|
③口口③ |----|
13
③⑦⑥② |①-②③|
口⑤④口 |④⑤⑥⑦|
口口口口
口①①口

口口口口
⑨口口⑧
⑪⑮⑭⑩ |⑧⑨⑩⑪|
口⑬⑫口 |⑫⑬⑭⑮|
14
①口口口 |①--②|
口口②口 |--③-|
③口口口 |----|
口口口口 |----|
15
⑧⑦⑥口 |--①②|
口②⑨④ |③④-⑤|
①口③口 |-⑥⑦-|
口⑤⑤口 |⑧-⑨-|
16
④口口④ |①--②|
②口口② |--③-|
①口口口 |----|
③口口③ |④---|
17
口口口口 |①--②|
④口口④ |----|
口①②口 |③---|
③口口③ |④---|
18
口①①口 |①-②③|
口口口口 |-④-⑤|
口⑤③②
口④口口

口⑨⑧⑫
⑦⑪⑩⑥
口口口口 |-⑥⑦⑧|
口口口口 |⑨⑩⑪⑫|
19
①口口口 |①-②③|
⑤口口口 |-④-⑤|
口口③②
④口口口

口口口口
口口口口
口口⑦⑥ |----|
口口口口 |--⑥⑦|
20
③⑦⑥② |①---|
⑨⑤④⑧ |--②③|
⑪①口⑩ |④⑤⑥⑦|
口口口口 |⑧⑨⑩⑪|
21
③口口④ |①--②|
口口口口 |--③-|
口②②口 |④---|
口①①口 |----|
22
口①①口 |①-②③|
口口口口 |-④-⑤|
口⑤③②
口④口口

口⑨⑧⑫
⑦⑪⑩⑥
口口口口 |-⑥⑦⑧|
口口口口 |⑨⑩⑪⑫|
23
①口口口 |①-②③|
⑤口口④ |-④-⑤|
口口③②
口口口口

口口口口
口口口口
口口⑦⑥ |----|
口口口口 |--⑥⑦|
24
③⑦⑥② |①---|
⑨⑤④⑧ |--②③|
⑪①口⑩ |④⑤⑥⑦|
口口口口 |⑧⑨⑩⑪|
25
③口口④ |①--②|
口口口口 |--③-|
口②②口 |④---|
口①①口 |----|
26
口②②口 |①--②|
口口口口 |--③-|
口口口口
①③③①

④⑥⑥④
口口口口
口口口口 |-④--|
⑤口口⑤ |⑤--⑥|
27
②④④② |--①-|
口口口口 |-②--|
⑧⑦⑥⑤ |③--④|
③①①③ |⑤⑥⑦⑧|
28
②口口② |①--②|
口口口口 |--③-|
口口口口
③①①③

⑥④④⑥
口口口口
口口口口 |-④--|
口⑤⑤口 |⑤--⑥|
29
④②②④ |--①-|
⑧⑦⑥⑤ |-②--|
口口口口 |③--④|
①③③① |⑤⑥⑦⑧|
30
口②②口 |①--②|
口口口口 |--③-|
口口口口
①③③①

④⑥⑥④
口口口口
口口口口 |-④--|
⑤口口⑤ |⑤--⑥|
31
②④④② |--①-|
口口口口 |-②--|
⑧⑦⑥⑤ |③--④|
③①①③ |⑤⑥⑦⑧|
32
②口口② |①--②|
口口口口 |--③-|
口口口口
③①①③

⑥④④⑥
口口口口
口口口口 |-④--|
口⑤⑤口 |⑤--⑥|
33
口②②口 |--①-|
⑦口口⑤ |-②--|
⑥口⑧④ |③-④-⑤-|
①③③① |⑥-⑦-⑧-|
34
口①①口 |①---|
③口口③ |----|
口口口口 |--②-|
口②②口 |--③-|
35
①口口① |①---|
口口口口 |----|
口②②口 |②---|
口口口口 |----|
36
①口口① |①---|
口口口口 |--②-|
②口口③ |③---|
口口口口 |----|
37
①口口① |①---|
②口口② |②---|
③口口③ |③---|
④口口④ |④---|
38
③口口口 |①---|
口①①口 |----|
口口口口 |--②-|
口②②口 |--③-|
39
口口口① |①---|
③口口③ |----|
口口口口 |②---|
口②②口 |③---|
40
①口口① |①---|
口④口口 |--②-|
口口口口 |③---|
口②③口 |--④-|
41
口②③口 |①---|
口口①口 |--②-|
口口口口 |③---|
口口口口 |----|
42
③口口③ |①--②|
口②②口 |--③-|
口口口口 |----|
①口口① |----|
43
⑧⑤⑤口 |--①②|
口③⑨① |③④-⑤|
④口②口 |-⑥⑦-|
口⑥⑦口 |⑧-⑨-|
44
口口口口 |①--②|
口口口口 |--③-|
①③③口 |----|
②口口② |----|
45
⑧口口⑦ |--①②|
⑥⑭⑬⑤ |③④⑤⑥|
④⑫⑪③ |⑦⑧⑨⑩|
②⑩⑨① |⑪⑫⑬⑭|
46
口③③口 |①--②|
②口口② |--③-|
口口口口 |----|
①口口① |----|
47
⑧⑤⑤口 |--①②|
口③⑨① |③④-⑤|
④口②口 |-⑥⑦-|
口⑥⑦口 |⑧-⑨-|
48
口③③口 |①--②|
口口口口 |--③-|
①口口口
②口口②

口口口口
口口口口
④口口④ |----|
口口口口 |④---|
49
①②②① |①--②|
②口口② |--③-|
口口口口
口③③口

⑤口口⑤
口④④口
口口口口 |④---|
口口口口 |⑤---|
50
口①①口 |①---|
①口口① |----|
口口口口
口口口口

口口口口
口口③②
口口口口 |----|
口口口口 |--②③|
51
口⑥⑥口 |①---|
口①口口 |--②③|
②③④口 |④--⑤|
口⑤⑤口 |--⑥-|
52
②⑩⑨① |--①②|
④⑫⑪③ |③④⑤⑥|
⑥⑭⑬⑤ |⑦⑧⑨⑩|
⑧口口⑦ |⑪⑫⑬⑭|
53
④口口③ |①②③④|
⑥口口⑤ |⑤⑥⑦⑧|
⑧口口⑦ |⑨---|
口②①⑨ |----|
54
⑯⑧⑦⑮ |①②③④|
⑭⑥⑤⑬ |⑤⑥⑦⑧|
⑫④③⑪ |⑨⑩⑪⑫|
⑩②①⑨ |⑬⑭⑮⑯|
55
口⑧⑦口 |①②③④|
口⑥⑤口 |⑤⑥⑦⑧|
口④③口
口②①口

⑯口口⑮
⑭口口⑬
⑫口口⑪ |⑨⑩⑪⑫⑬|
⑩口⑰⑨ |⑭⑮⑯⑰-|
56
④②②口 |①--②|
口③③⑤ |--③-|
⑥①①口 |--④-|
口口口口 |⑤-⑥-|
57
口②②口 |①--②|
口④④口 |----|
口口口口 |③---|
③①①③ |④---|
58
①②口③ |①②-③|
④⑤口⑥ |--④⑤|
⑦⑧口⑨ |-⑥--|
口口口口 |⑦⑧-⑨|
59
口口口口 |--①②|
口⑤④口 |-③--|
口⑦⑥口 |④-⑤-|
①②口③ |⑥-⑦-|
60
①②口③ |①②-③|
④⑤口⑥ |--④⑤|
⑦⑧口⑨ |-⑥--|
口口口口 |⑦⑧-⑨|
61
口口口口 |--①②|
口⑤⑦口 |-③--|
口④⑥口 |④-⑤-|
①②口③ |⑥-⑦-|
62
①②口③ |①②-③|
④⑤口⑥ |--④⑤|
⑦⑧口⑨ |-⑥--|
口口口口 |⑦⑧-⑨|
63
口口口口 |--①②|
口⑤④口 |-③--|
口⑦⑥口 |④-⑤-|
①②口③ |⑥-⑦-|
64
①②口③ |①②-③|
④⑤口⑥ |--④⑤|
⑦⑧口⑨ |-⑥--|
口口口口 |⑦⑧-⑨|
65
口口口口 |--①②|
口⑤⑦口 |-③--|
口④⑥口 |④-⑤-|
①②口③ |⑥-⑦-|
66
①①①① |----|
口口口口 |--①-|
口口口口 |----|
口口口口 |----|

不确定度: 0

タグ:

+ タグ編集
  • タグ:

このサイトはreCAPTCHAによって保護されており、Googleの プライバシーポリシー利用規約 が適用されます。

最終更新:2012年12月04日 01:24