Golden House
bma群星

ADVANCED

Level: 6
BPM: 130
Notes: 449

1
口口口口 |----|
口口口口 |----|
口口口口 |----|
口口口口 |----|
2
口口口口 |①---|
①①口口 |----|
口口①① |----|
口口口口 |----|
3
口口口口 |----|
口口口口 |----|
口口口口 |----|
口口口口 |----|
4
口口口口 |①--②|
⑥③③口 |--③-|
④②②⑤ |--④-|
口①①口 |⑤-⑥-|
5
口口口口 |①--②|
口③③口 |--③-|
口②②口 |----|
口①①口 |----|
6
口口口口 |①--②|
③⑥口③ |--③-|
②④⑤② |--④-|
①口口① |⑤-⑥-|
7
口口口口 |①--②|
③口口③ |--③-|
②口口② |----|
①口口① |----|
8
口④⑤⑥ |①--②|
口口③③ |--③-|
②②口口 |--④-|
口口①① |⑤-⑥-|
9
口口口口 |①--②|
③③口口 |--③-|
口口②② |----|
①①口口 |----|
10
⑥⑤④口 |①--②|
③③口口 |--③-|
口口②② |--④-|
①①口口 |⑤-⑥-|
11
口口口口 |①--②|
口口③③ |--③-|
②②口口 |----|
口口①① |----|
12
口口口口 |①-②-|
⑥⑧⑧⑦ |③-④⑤|
④③口⑤ |-⑥⑦-|
口①②口 |⑧---|
13
⑧口口⑧ |①-②-|
口⑥⑦口 |③-④⑤|
③④⑤口 |-⑥⑦-|
①口口② |⑧---|
14
口⑧⑨口 |①-②-|
⑥口口⑦ |③-④⑤|
④③口⑤ |-⑥⑦-|
口①②口 |⑧-⑨-|
15
口⑦⑦口 |①-②-|
口⑥①口 |③-④-|
口⑤②口 |⑤-⑥-|
口④③口 |⑦---|
16
口口口口 |①-②-|
⑥⑧⑧⑦ |③-④⑤|
④③口⑤ |-⑥⑦-|
口①②口 |⑧---|
17
⑧口口⑧ |①-②-|
口⑥⑦口 |③-④⑤|
③④⑤口 |-⑥⑦-|
①口口② |⑧---|
18
口⑧⑨口 |①-②-|
⑥口口⑦ |③-④⑤|
④③口⑤ |-⑥⑦-|
口①②口 |⑧-⑨-|
19
口⑦⑦口 |①-②-|
口⑥①口 |③-④-|
口⑤②口 |⑤-⑥-|
口④③口 |⑦---|
20
口口口口 |----|
①口口① |①---|
口口口口 |----|
口②②口 |②---|
21
①口口① |----|
口口口口 |①---|
口②②口 |②---|
口口口口 |----|
22
口口口口 |----|
①口口① |①---|
口口口口 |----|
口②②口 |②---|
23
①口口① |----|
口③③口 |①---|
口②②口 |②---|
口口口口 |③---|
24
口口口口 |①--②|
④⑤⑥⑦ |③-④-|
①口②③ |⑤-⑥-|
口口口口 |⑦---|
25
⑥口口口 |①-②-|
口⑤⑤口 |③-④-|
③口口④ |⑤---|
口①②口 |⑥---|
26
口口口口 |①--②|
①口②③ |③-④-|
④⑤⑥⑦ |⑤-⑥-|
口口口口 |⑦---|
27
口①②口 |①-②-|
口③④口 |③-④-|
口⑤口口 |⑤---|
口口口口 |----|
28
口口⑥⑦ |①-②-|
④⑤口口 |③--④|
①②③口 |⑤-⑥-|
口口口口 |⑦---|
29
口口口口 |①-②-|
口⑤⑤口 |③-④-|
③口口④ |⑤---|
口①②口 |----|
30
口口口口 |①--②|
①口②③ |③-④-|
④⑤⑥⑦ |⑤-⑥-|
口口口口 |⑦---|
31
口①①口 |①---|
口②②口 |②---|
③口口③ |③---|
④⑤口口 |④-⑤-|
32
口口口⑧ |①--②|
④⑤⑥⑦ |③-④-|
口②③口 |⑤-⑥-|
口口①口 |⑦-⑧-|
33
③②①口 |①-②-|
口④口口 |③-④-|
口口口口
口口口口

口口⑦⑥
口口口口
口口⑤口 |⑤---|
口口口口 |⑥-⑦-|
34
口①口口 |①--②|
口②③口 |③-④-|
④⑤⑥⑦ |⑤-⑥-|
口口口⑧ |⑦-⑧-|
35
④口口⑤ |①--②|
口②③口 |③-④-|
口口口口 |⑤---|
⑥⑦①口 |⑥-⑦-|
36
口口口⑧ |①--②|
④⑤⑥⑦ |③-④-|
口②③口 |⑤-⑥-|
口口①口 |⑦-⑧-|
37
③②①口 |①-②-|
口④口口 |③-④-|
口口⑤口 |⑤---|
口口口口 |----|
38
⑤口口① |①-②-|
口⑥②口 |③-④-|
口③⑦口 |⑤-⑥-|
④口口⑧ |⑦-⑧-|
39
口口口口 |①---|
口③③口 |②---|
②口口② |③---|
口①①口 |----|
40
①口口① |①---|
②③④口 |----|
口口口口 |--②-|
口口口口 |③-④-|
41
口口口口 |①---|
口口口① |②-③-|
口④③② |④---|
口⑤⑤口 |⑤---|
42
口口口口 |①---|
口口口口 |----|
①口口①
口口口口

口口口口
口口口口
口④③② |--②-|
口口口口 |③-④-|
43
⑥口口⑦ |①-②-|
②③④⑤ |③-④-|
①口口口 |⑤---|
口口口口 |⑥-⑦-|
44
口口口口 |①---|
口①①口 |----|
口③③口 |②---|
口②②口 |③---|
45
口口口口 |①---|
①口口① |--②③|
口口口口
②③口口

口口口口
⑦口口口
⑤口口⑥ |④-⑤-|
口口④口 |⑥-⑦-|
46
口口口口 |①---|
口口口① |----|
口②②口 |②---|
口口口口 |----|
47
口口口口 |①---|
①①①① |----|
口口口口 |----|
口口口口 |----|
48
口口口口 |①-②-|
⑥⑧⑧⑦ |③-④⑤|
④③口⑤ |-⑥⑦-|
口①②口 |⑧---|
49
⑧口口⑧ |①-②-|
口⑥⑦口 |③-④⑤|
③④⑤口 |-⑥⑦-|
①口口② |⑧---|
50
口⑧⑨口 |①-②-|
⑥口口⑦ |③-④⑤|
④③口⑤ |-⑥⑦-|
口①②口 |⑧-⑨-|
51
口⑦⑦口 |①-②-|
口⑥①口 |③-④-|
口⑤②口 |⑤-⑥-|
口④③口 |⑦---|
52
口口口口 |①-②-|
⑥⑧⑧⑦ |③-④⑤|
④③口⑤ |-⑥⑦-|
口①②口 |⑧---|
53
⑧口口⑧ |①-②-|
口⑥⑦口 |③-④⑤|
③④⑤口 |-⑥⑦-|
①口口② |⑧---|
54
口⑧⑨口 |①-②-|
⑥口口⑦ |③-④⑤|
④③口⑤ |-⑥⑦-|
口①②口 |⑧-⑨-|
55
口⑦⑦口 |①-②-|
口⑥①口 |③-④-|
口⑤②口 |⑤-⑥-|
口④③口 |⑦---|
56
口口口口 |①-②-|
⑥⑧⑧⑦ |③-④⑤|
④③口⑤ |-⑥⑦-|
口①②口 |⑧---|
57
⑧口口⑧ |①-②-|
口⑥⑦口 |③-④⑤|
③④⑤口 |-⑥⑦-|
①口口② |⑧---|
58
口⑧⑨口 |①-②-|
⑥口口⑦ |③-④⑤|
④③口⑤ |-⑥⑦-|
口①②口 |⑧-⑨-|
59
口⑦⑦口 |①-②-|
口⑥①口 |③-④-|
口⑤②口 |⑤-⑥-|
口④③口 |⑦---|
60
口口口口 |①-②-|
⑥⑧⑧⑦ |③-④⑤|
④③口⑤ |-⑥⑦-|
口①②口 |⑧---|
61
⑧口口⑧ |①-②-|
口⑥⑦口 |③-④⑤|
③④⑤口 |-⑥⑦-|
①口口② |⑧---|
62
口⑧⑨口 |①-②-|
⑥口口⑦ |③-④⑤|
④③口⑤ |-⑥⑦-|
口①②口 |⑧-⑨-|
63
⑦⑦⑦⑦ |①-②-|
口⑥①口 |③-④-|
口⑤②口 |⑤-⑥-|
口④③口 |⑦---|


不确定度: 0

最終更新:2012年11月23日 02:01