Golden House
bma群星

EXTREME

Level: 8
BPM: 130
Notes: 661

1
口口口口 |----|
口口口口 |----|
口口口口 |----|
口口口口 |----|
2
口口口口 |①---|
①口①① |----|
①①口① |----|
口口口口 |----|
3
口口口口 |----|
口口口口 |----|
口口口口 |----|
口口口口 |----|
4
①①口口 |①--②|
③③②② |--③-|
②②③③
口口①①

口④口⑤
口口口⑥
⑥口口口 |--④-|
⑤口④口 |⑤-⑥-|
5
①③②口 |①--②|
①③②口 |--③-|
口②③① |----|
口②③① |----|
6
①①口口 |①--②|
③③②② |--③-|
②②③③
口口①①

口④口⑤
口口口⑥
⑥口口口 |--④-|
⑤口④口 |⑤-⑥-|
7
①③②口 |①--②|
①③②口 |--③-|
口②③① |----|
口②③① |----|
8
①①口口 |①--②|
③③②② |--③-|
②②③③
口口①①

口④口⑤
口口口⑥
⑥口口口 |--④-|
⑤口④口 |⑤-⑥-|
9
①③②口 |①--②|
①③②口 |--③-|
口②③① |----|
口②③① |----|
10
①①口口 |①--②|
③③②② |--③-|
②②③③
口口①①

口④口⑤
口口口⑥
⑥口口口 |--④-|
⑤口④口 |⑤-⑥-|
11
①③②口 |①--②|
①③②口 |--③-|
口②③① |----|
口②③① |----|
12
⑧口口⑧ |①-②-|
③⑥⑦③ |③-④⑤|
②④⑤② |-⑥⑦-|
①口口① |⑧---|
13
口⑧⑧口 |①-②-|
⑥③③⑦ |③-④⑤|
④②②⑤ |-⑥⑦-|
口①①口 |⑧---|
14
口口口口 |①-②-|
③口口③ |③-④⑤|
②④⑤②
①口口①

口⑧⑧口
口⑥⑦口
口口口口 |-⑥⑦-|
⑨口口⑨ |⑧-⑨-|
15
③④⑤③ |①-②-|
②⑥⑥④ |③-④-|
①⑦⑦⑤ |⑤-⑥-|
口②①口 |⑦---|
16
⑧口口⑧ |①-②-|
③⑥⑦③ |③-④⑤|
②④⑤② |-⑥⑦-|
①口口① |⑧---|
17
口⑧⑧口 |①-②-|
⑥③③⑦ |③-④⑤|
④②②⑤ |-⑥⑦-|
口①①口 |⑧---|
18
口口口口 |①-②-|
③口口③ |③-④⑤|
②④⑤②
①口口①

口⑧⑧口
口⑥⑦口
口口口口 |-⑥⑦-|
⑨口口⑨ |⑧-⑨-|
19
③④⑤③ |①-②-|
②⑥⑥④ |③-④-|
①⑦⑦⑤ |⑤-⑥-|
口②①口 |⑦---|
20
①口口① |----|
①口口① |①---|
口口口口 |----|
②②②② |②---|
21
①①①① |----|
口口口口 |①---|
②口口② |②---|
②口口② |----|
22
①口口① |----|
①口口① |①---|
口口口口 |----|
②②②② |②---|
23
①①①① |----|
口③③口 |①---|
②③③② |②---|
②口口② |③---|
24
口②③口 |①--②|
①⑦口口 |③-④-|
口口⑥口 |⑤-⑥-|
④⑤口口 |⑦---|
25
①口口② |①②③④|
③口口④ |⑤-⑥-|
⑤口口口
口⑥口口

⑧口口口
口口口口
口口⑦口 |⑦---|
口口⑦口 |⑧---|
26
口口口口 |①--②|
口口④口 |③-④-|
①口②③
口口口口

口口⑤口
口⑥口口
⑦口口口 |⑤-⑥-|
口口口口 |⑦---|
27
口口口口 |①②③④|
⑥口口⑦ |⑤-⑥-|
口①②⑦ |⑦---|
⑤③④口 |----|
28
口口②口 |①-②-|
①⑦口口 |③--④|
口口⑥③ |⑤-⑥-|
④⑤口口 |⑦---|
29
①口口② |①②③④|
③口口④ |⑤-⑥-|
⑤口⑦口 |⑦---|
口⑥⑦口 |----|
30
口口口口 |①--②|
口口④口 |③-④-|
①口②③
口口口口

口口⑤口
口⑥口口
⑦口口口 |⑤-⑥-|
口口口口 |⑦---|
31
③口口③ |①---|
口③③口 |②---|
⑤①②口 |③---|
④②①口 |④-⑤-|
32
口口口口 |①--②|
①口②③ |③-④-|
口④口⑦ |⑤-⑥-|
口⑥⑧⑤ |⑦-⑧-|
33
口③④口 |①-②-|
②口口⑤ |③-④-|
口口①口 |⑤---|
口⑥⑦口 |⑥-⑦-|
34
口④口⑦ |①--②|
②③口口 |③-④-|
口⑥⑧⑤ |⑤-⑥-|
口口口① |⑦-⑧-|
35
口口①口 |①--②|
口②③口 |③-④-|
口口口口
④口口口

口口⑦⑥
口口口口
口口口⑤ |⑤---|
口口口口 |⑥-⑦-|
36
口①口口 |①--②|
②③口⑦ |③-④-|
口④⑧口 |⑤-⑥-|
口口⑥⑤ |⑦-⑧-|
37
口口②口 |①-②-|
①口口口 |③-④-|
⑤口口③ |⑤---|
口④口口 |----|
38
口②口④ |①-②-|
①口③口 |③-④-|
口⑥口⑧ |⑤-⑥-|
⑤口⑦口 |⑦-⑧-|
39
①口①口 |①---|
③①③① |②---|
②③②③ |③---|
口②口② |----|
40
口口口口 |①---|
口④口④ |----|
③口③口 |--②-|
①②①② |③-④-|
41
①⑤①口 |①---|
④口④口 |②-③-|
口③口③ |④---|
②口②口 |⑤---|
42
口口④① |①---|
④口③口 |----|
③口②口 |--②-|
②口口口 |③-④-|
43
①④口⑤ |①-②-|
口③口④ |③-④-|
口②口③ |⑤---|
口⑥⑦② |⑥-⑦-|
44
口③③口 |①---|
口①①口 |----|
②口口② |②---|
口口口口 |③---|
45
②③④口 |①---|
口⑦口口 |--②③|
口⑤⑥口 |④-⑤-|
①口口① |⑥-⑦-|
46
口口口口 |①---|
口口①口 |----|
口口口口 |②---|
②口口② |----|
47
①口口① |①---|
①①①① |----|
口口口口 |----|
口口口口 |----|
48
⑧口口⑧ |①-②-|
③⑥⑦③ |③-④⑤|
②④⑤② |-⑥⑦-|
①口口① |⑧---|
49
口⑧⑧口 |①-②-|
⑥③③⑦ |③-④⑤|
④②②⑤ |-⑥⑦-|
口①①口 |⑧---|
50
口口口口 |①-②-|
③口口③ |③-④⑤|
②④⑤②
①口口①

口⑧⑧口
口⑥⑦口
口口口口 |-⑥⑦-|
⑨口口⑨ |⑧-⑨-|
51
③④⑤③ |①-②-|
②⑥⑥④ |③-④-|
①⑦⑦⑤ |⑤-⑥-|
口②①口 |⑦---|
52
⑧口口⑧ |①-②-|
③⑥⑦③ |③-④⑤|
②④⑤② |-⑥⑦-|
①口口① |⑧---|
53
口⑧⑧口 |①-②-|
⑥③③⑦ |③-④⑤|
④②②⑤ |-⑥⑦-|
口①①口 |⑧---|
54
口口口口 |①-②-|
③口口③ |③-④⑤|
②④⑤②
①口口①

口⑧⑧口
口⑥⑦口
口口口口 |-⑥⑦-|
⑨口口⑨ |⑧-⑨-|
55
③④⑤③ |①-②-|
②⑥⑥④ |③-④-|
①⑦⑦⑤ |⑤-⑥-|
口②①口 |⑦---|
56
⑧口口⑧ |①-②-|
③⑥⑦③ |③-④⑤|
②④⑤② |-⑥⑦-|
①口口① |⑧---|
57
口⑧⑧口 |①-②-|
⑥③③⑦ |③-④⑤|
④②②⑤ |-⑥⑦-|
口①①口 |⑧---|
58
口口口口 |①-②-|
③口口③ |③-④⑤|
②④⑤②
①口口①

口⑧⑧口
口⑥⑦口
口口口口 |-⑥⑦-|
⑨口口⑨ |⑧-⑨-|
59
③④⑤③ |①-②-|
②⑥⑥④ |③-④-|
①⑦⑦⑤ |⑤-⑥-|
口②①口 |⑦---|
60
⑧口口⑧ |①-②-|
③⑥⑦③ |③-④⑤|
②④⑤② |-⑥⑦-|
①口口① |⑧---|
61
口⑧⑧口 |①-②-|
⑥③③⑦ |③-④⑤|
④②②⑤ |-⑥⑦-|
口①①口 |⑧---|
62
口口口口 |①-②-|
③口口③ |③-④⑤|
②④⑤②
①口口①

口⑧⑧口
口⑥⑦口
口口口口 |-⑥⑦-|
⑨口口⑨ |⑧-⑨-|
63
③④口③ |①-②-|
②口口④ |③-④-|
①口口口
口②①口

口口⑤口
口⑥⑥口
口⑦⑦⑤ |⑤-⑥-|
⑦⑦⑦⑦ |⑦---|


不确定度: 0

最終更新:2012年11月23日 02:01