Garden of Love

BASIC

Level: 1
BPM: 128
Notes: 174

1
口口口口 |----|
口口口口 |----|
口口口口 |----|
口口口口 |----|
2
口口口口 |①---|
口①①口 |----|
口口口口 |----|
口口口口 |----|
3
口口口口 |----|
口口口口 |----|
口口口口 |----|
口口口口 |----|
4
口口口口 |①---|
口口口口 |----|
口①①口 |②---|
口口②口 |----|
5
口口口口 |①---|
②③口口 |----|
口口口口 |②---|
口①口口 |③---|
6
口口口口 |①---|
口口①② |----|
口口口口 |②---|
口口口口 |----|
7
口口口口 |①---|
口口口口 |----|
②口口① |②---|
口口口口 |----|
8
口口口口 |①---|
口口口口 |----|
口②②口 |②---|
口①①口 |----|
9
口口口口 |①---|
口①②口 |----|
口口口口 |②---|
口口口口 |----|
10
②①①口 |①---|
口口口口 |----|
口口口口 |②---|
口口口口 |----|
11
口口口口 |①---|
口①口口 |②---|
口②口口 |③---|
口③口口 |----|
12
口口口② |①---|
口口口① |----|
口口口口 |②---|
口口口口 |----|
13
口口①口 |①---|
口口②口 |②---|
口口③口 |③---|
口口④口 |④---|
14
口口口口 |①---|
口口口口 |----|
②口口口 |②---|
口口口① |----|
15
②口口口 |①---|
①口口口 |----|
口口口口 |②---|
口口口口 |----|
16
口①口口 |----|
口②口口 |①---|
口③口口 |②---|
口口口口 |③---|
17
口口口口 |①---|
口口④口 |②---|
口口③口 |③---|
口①②口 |④---|
18
口口①② |①---|
口口口口 |----|
口口口口 |----|
口口口口 |②---|
19
口口口口 |①---|
口口口① |②---|
口口口② |③---|
口口口③ |----|
20
口口口口 |①---|
口口口口 |----|
口口口口 |②---|
口①②口 |----|
21
④③③④ |①---|
口②②口 |②---|
口①①口 |③---|
口口口口 |④---|
22
口口口口 |----|
口口口① |①---|
口口口② |②---|
口口③口 |③---|
23
口口口口 |①---|
③口口口 |②---|
②口口口 |③---|
口①口口 |----|
24
口①①口 |①---|
口②②口 |----|
口口口口 |②---|
口口口口 |----|
25
口口口口 |①---|
口口口口 |----|
口①①口 |②---|
口②②口 |----|
26
③口口③ |①---|
②口口② |----|
口口口口 |②---|
①口口① |③---|
27
口口口口 |①---|
口①口口 |②---|
口②口口 |③---|
口③口口 |----|
28
口口口口 |①---|
口口口口 |----|
②口口口 |②---|
①口口口 |----|
29
口口口口 |①---|
口口①口 |②---|
口口②口 |③---|
口口③口 |----|
30
口口口口 |①---|
口口口口 |----|
口口口② |②---|
口口口① |----|
31
口③③口 |①---|
口②②口 |②---|
口①①口 |③---|
口口口口 |----|
32
①口口① |①---|
②口口② |----|
口口口口 |②---|
口口口口 |----|
33
口口口口 |①---|
口口口口 |----|
口①②口 |②---|
口口口口 |----|
34
口口口口 |①---|
口口口口 |----|
口口口口 |②---|
口①②口 |----|
35
口口口口 |①---|
口①口口 |②---|
口②口口 |③---|
口③口口 |----|
36
口口口口 |①---|
口口口口 |----|
②口口口 |②---|
①口口口 |----|
37
口口口口 |①---|
口口①口 |②---|
口口②口 |③---|
口口③口 |----|
38
口口口口 |①---|
口口口口 |----|
口口口② |②---|
口口口① |----|
39
口③③口 |①---|
口②②口 |②---|
口①①口 |③---|
口口口口 |----|
40
①口口① |①---|
②口口② |----|
口口口口 |②---|
口口口口 |----|
41
口口口口 |①---|
口口口口 |----|
口①②口 |②---|
口口口口 |----|
42
口口口口 |①---|
口口口口 |----|
口口口口 |②---|
口①②口 |----|
43
口口口口 |①---|
口①口口 |②---|
口②口口 |③---|
口③口口 |----|
44
口口口口 |①---|
口口口口 |----|
②口口口 |②---|
①口口口 |----|
45
口口口口 |①---|
口口①口 |②---|
口口②口 |③---|
口口③口 |----|
46
口口口口 |①---|
口口口口 |----|
口口口② |②---|
口口口① |----|
47
口③③口 |①---|
口②②口 |②---|
口①①口 |③---|
口口口口 |----|
48
①口口① |①---|
②口口② |----|
口口口口 |②---|
口口口口 |----|
49
口口口口 |①---|
口口口口 |----|
口①②口 |②---|
口口口口 |----|
50
口口口口 |①---|
口口口口 |----|
口口口口 |②---|
口①②口 |----|
51
口口口口 |①---|
口①口口 |②---|
口②口口 |③---|
口③口口 |----|
52
口口口口 |①---|
口口口口 |----|
②口口口 |②---|
①口口口 |----|
53
口口口口 |①---|
口口①口 |②---|
口口②口 |③---|
口口③口 |----|
54
口口口口 |①---|
口口口口 |----|
口口口② |②---|
口口口① |----|
55
口③③口 |①---|
口②②口 |②---|
口①①口 |③---|
口口口口 |----|
56
①口口① |①---|
②口口② |----|
口口口口 |②---|
口口口口 |----|
57
口口口口 |①---|
口口口口 |----|
口①②口 |②---|
口口口口 |----|
58
口口口口 |①---|
口口口口 |----|
口口口口 |②---|
口①②口 |----|
59
口口口口 |①---|
口①①口 |----|
口口口口 |----|
口口口口 |----|


不确定度: 0

最終更新:2012年11月23日 02:00