Garden of Love

ADVANCED

Level: 6
BPM: 128
Notes: 414

1
口口口口 |----|
口口口口 |----|
口①①口 |----|
口口口口 |①---|
2
口口口口 |①---|
口①①口 |----|
口口口口 |----|
口口口口 |----|
3
口口口口 |----|
①②③口 |----|
口口口口 |--①-|
口口口口 |②-③-|
4
口口口口 |①---|
口口口① |----|
口③③口 |②---|
口②②口 |③---|
5
②口口② |①--②|
口①①口 |----|
④口口④ |③---|
③口口③ |④---|
6
②口口② |①---|
①口口① |--②-|
口口口口 |----|
③口口③ |③---|
7
③口口③ |①--②|
口②②口 |--③-|
①口口①
口口口口

口④④口
口⑤⑤口
口⑥⑥口 |--④-|
口口口口 |⑤-⑥-|
8
口②②口 |①--②|
口口口口 |--③-|
口口口口
③①①③

④⑤口④
口口口口
口口口口 |--④-|
口口口口 |--⑤-|
9
口口①口 |①-②-|
口②③口 |③-④-|
口④⑤口 |--⑤-|
口⑥⑦口 |⑥-⑦-|
10
口①③口 |----|
②④口口 |①-②-|
⑤口口口 |--③-|
口口口口 |④-⑤-|
11
口口口口 |①--②|
口口口③ |--③-|
口口②口 |--④-|
口①口④ |----|
12
口口口口 |----|
口口口③ |①--②|
口口④① |--③-|
口⑤②口 |④-⑤-|
13
口④①口 |①---|
⑤②口口 |②---|
③口口口 |③--④|
口口口口 |--⑤-|
14
口③①口 |----|
口口④② |①--②|
口口口⑤ |--③-|
口口口口 |④-⑤-|
15
口口口口 |①--②|
③口口口 |--③-|
口②口口 |--④-|
④口①口 |----|
16
口口④口 |----|
口⑤口③ |①--②|
①口⑥口 |--③-|
口②口口 |④-⑤⑥|
17
口①口口 |----|
①口②口 |①---|
口②口③ |②---|
口口③口 |③---|
18
口②口口 |①---|
③①口口 |----|
口口①口 |----|
口口口口 |②-③-|
19
口口①口 |①--②|
口②口口 |--③-|
③口口口 |----|
口口口④ |--④-|
20
口④口口 |①---|
⑤口口① |②---|
口口②口 |③--④|
口③口口 |--⑤-|
21
口口①口 |①--②|
口②口口 |--③-|
③口口口
口口口口

口口口口
口⑥⑥口
口⑤⑤口 |--④-|
口④④口 |⑤-⑥-|
22
②口口② |--①-|
③⑥⑥③ |-②-③|
④⑤⑤④ |-④--|
①口口① |⑤-⑥-|
23
口①①口 |①--②|
②口口② |--③-|
口③③口
口口口口

④④口口
口口⑤口
口口口口 |----|
口口口口 |④-⑤-|
24
口口口③ |①---|
口口口④ |②---|
口①口⑤ |③---|
①②②口 |④--⑤|
25
口口口口 |----|
口口口口 |--①-|
口②②口 |----|
口①①口 |②---|
26
④②③⑤ |--①-|
口①①口 |----|
口口口口 |②-③-|
口口口口 |④-⑤-|
27
口口口口 |①--②|
②口口② |-③-④|
③口口③
④①①④

口⑤口口
口口⑥口
口口口⑦ |--⑤-|
口口口口 |⑥-⑦-|
28
④口口⑤ |①--②|
③口口口 |--③-|
口②口口 |----|
口口①口 |④-⑤-|
29
口口口口 |①--②|
②口口② |-③-④|
③口口③
④①①④

口⑤口口
口口⑥口
口口口⑦ |--⑤-|
口口口口 |⑥-⑦-|
30
④口口⑤ |①--②|
①口口口 |--③-|
口②口口 |----|
口口③口 |④-⑤-|
31
口口口口 |①--②|
②口口② |-③-④|
③口口③
④①①④

口⑤口口
口口⑥口
口口口⑦ |--⑤-|
口口口口 |⑥-⑦-|
32
口口①口 |①--②|
口②口口 |--③-|
③口⑥口 |--④-|
口⑤④口 |⑤-⑥-|
33
④②②④ |①--②|
口口口口 |--③-|
口①口口 |--④-|
③⑤口③ |--⑤-|
34
⑥口口⑦ |①-②-|
口④⑤口 |③-④-|
口②③口 |--⑤-|
口口①口 |⑥-⑦-|
35
口口口口 |①--②|
②口口② |-③-④|
③口口③
④①①④

口⑤口口
口口⑥口
口口口⑦ |--⑤-|
口口口口 |⑥-⑦-|
36
①口口口 |①--②|
口②口口 |--③-|
口口③口
口口口口

④口口⑤
口口口口
口口口口 |----|
口口口口 |④-⑤-|
37
口口口口 |①--②|
②口口② |-③-④|
③口口③
④①①④

口⑤口口
口口⑥口
口口口⑦ |--⑤-|
口口口口 |⑥-⑦-|
38
④口①⑤ |①--②|
口口口② |--③-|
口口③口 |----|
口口口口 |④-⑤-|
39
口口口口 |①--②|
②口口② |-③-④|
③口口③
④①①④

口⑤口口
口口⑥口
口口口⑦ |--⑤-|
口口口口 |⑥-⑦-|
40
口口口口 |①--②|
口②口口 |--③-|
①③②口
口①口口

口口口口
口口口口
口口⑥口 |--④-|
口⑤④口 |⑤-⑥-|
41
④②②④ |①--②|
口口口口 |--③-|
口①口口 |--④-|
③⑤口③ |--⑤-|
42
⑥口口⑦ |①-②-|
口④⑤口 |③-④-|
口②③口 |--⑤-|
口口①口 |⑥-⑦-|
43
口口口口 |①--②|
②口口② |-③-④|
③口口③
④①①④

口⑤口口
口口⑥口
口口口⑦ |--⑤-|
口口口口 |⑥-⑦-|
44
④口口⑤ |①--②|
③口口口 |--③-|
口②口口 |----|
口口①口 |④-⑤-|
45
口口口口 |①--②|
②口口② |-③-④|
③口口③
④①①④

口⑤口口
口口⑥口
口口口⑦ |--⑤-|
口口口口 |⑥-⑦-|
46
④口口⑤ |①--②|
①口口口 |--③-|
口②口口 |----|
口口③口 |④-⑤-|
47
口口口口 |①--②|
②口口② |-③-④|
③口口③
④①①④

口⑤口口
口口⑥口
口口口⑦ |--⑤-|
口口口口 |⑥-⑦-|
48
口口①口 |①--②|
口②口口 |--③-|
③口⑥口 |--④-|
口⑤④口 |⑤-⑥-|
49
④②②④ |①--②|
口口口口 |--③-|
口①口口 |--④-|
③⑤口③ |--⑤-|
50
⑥口口⑦ |①-②-|
口④⑤口 |③-④-|
口②③口 |--⑤-|
口口①口 |⑥-⑦-|
51
口口口口 |①--②|
②口口② |-③-④|
③口口③
④①①④

口⑤口口
口口⑥口
口口口⑦ |--⑤-|
口口口口 |⑥-⑦-|
52
①口口口 |①--②|
口②口口 |--③-|
口口③口
口口口口

④口口⑤
口口口口
口口口口 |----|
口口口口 |④-⑤-|
53
口口口口 |①--②|
②口口② |-③-④|
③口口③
④①①④

口⑤口口
口口⑥口
口口口⑦ |--⑤-|
口口口口 |⑥-⑦-|
54
④口①⑤ |①--②|
口口口② |--③-|
口口③口 |----|
口口口口 |④-⑤-|
55
口口口口 |①--②|
②口口② |-③-④|
③口口③
④①①④

口⑤口口
口口⑥口
口口口⑦ |--⑤-|
口口口口 |⑥-⑦-|
56
口口口口 |①--②|
口②口口 |--③-|
①③②口
口①口口

口口口口
口口口口
口口⑥口 |--④-|
口⑤④口 |⑤-⑥-|
57
④②②④ |①--②|
口口口口 |--③-|
口①口口 |--④-|
③⑤口③ |--⑤-|
58
口⑥⑦口 |①-②-|
口④⑤口 |③-④-|
口②③口 |--⑤-|
口口①口 |⑥-⑦-|


不确定度: 0

最終更新:2012年11月23日 02:00