Garden of Love

EXTREME

Level: 8
BPM: 128
Notes: 726

1
①③口口 |----|
口口口口 |----|
口口口口 |----|
口口④② |①②③④|
2
口口口口 |①-②③|
⑤①口④ |-④-⑤|
口③②口
口口口口

口口口口
口⑦⑥口
口⑨⑧⑩ |-⑥⑦⑧|
口口口口 |⑨-⑩-|
3
口口口口 |①-②③|
⑤③②④ |-④-⑤|
①口口⑥ |-⑥⑦-|
口⑨⑧⑦ |⑧-⑨-|
4
口口口口 |①-②③|
⑤口⑥④ |-④-⑤|
⑧③②⑦ |-⑥--|
①口口口 |⑦-⑧-|
5
⑦口口⑦ |①-②③|
口①口口 |-④-⑤|
⑤③②④ |⑥---|
⑥口口⑥ |⑦---|
6
口①①口 |①---|
口口口口 |--②-|
口③③口 |----|
口②②口 |③---|
7
②③③② |①--②|
④①①④ |--③-|
口⑤⑤口 |--④-|
⑥口口⑥ |⑤-⑥-|
8
⑤④④口 |①--②|
②口口② |--③-|
②③③② |--④-|
口①①⑤ |--⑤-|
9
口⑦④③ |①-②-|
①⑥⑤② |③-④-|
②⑤⑥① |--⑤-|
③④⑦口 |⑥-⑦-|
10
①口⑥⑥ |①---|
②③⑦⑦ |②③④⑤|
⑧⑧④⑤ |--⑥-|
口口口① |⑦-⑧-|
11
③口口口 |①--②|
口②口口 |--③-|
口口②口
①①口③

口口口④
口口口口
口口口口 |--④-|
④口口口 |----|
12
⑤⑤口口 |----|
⑥⑥②① |①②③④|
④③⑦⑦ |--⑤-|
口口口口 |⑥-⑦-|
13
口口②② |①---|
口口④⑤ |②---|
⑤④口口 |③--④|
③③①① |--⑤-|
14
口口⑤⑤ |----|
①②⑥⑥ |①②③④|
⑦⑦③④ |--⑤-|
口口口口 |⑥-⑦-|
15
③口口口 |①--②|
口②口口 |--③-|
口口②口
①①口③

口口口④
口口口口
口口口口 |--④-|
④口口口 |----|
16
①④④② |----|
⑤口口⑥ |①--②|
⑤口口⑥ |--③-|
②③③① |④-⑤⑥|
17
⑤④④⑤ |----|
③②②③ |①--②|
口①①口 |③--④|
口口口口 |⑤---|
18
口口口口 |①---|
②①①③ |②③④⑤|
④①①⑤
口口口口

口口口口
口口口口
口⑦⑦口 |----|
⑥口口⑥ |⑥-⑦-|
19
口③③口 |①--②|
①口口② |--③-|
口口口口
口口口口

口口口口
④口口口
口口口④ |----|
口口口口 |--④-|
20
口口口口 |①---|
口①口② |②---|
②口①口
口口口口

口⑥口口
⑤口③⑤
口③口口 |③--④|
口④④口 |--⑤⑥|
21
口口①口 |①-②③|
口②③口 |-④⑤-|
口④⑤口
口口口口

口⑧⑧口
口口口口
口口口口 |--⑥-|
⑥⑦⑦⑥ |⑦-⑧-|
22
③口口② |--①-|
口口①口 |-②-③|
口①口口
②口口③

口口口口
口④⑤⑥
⑥⑤④口 |-④--|
口口口口 |⑤-⑥-|
23
口口口③ |①--②|
②口口口 |--③-|
口口口②
③①①口

口口口口
口口口口
口口⑤⑤ |----|
口口④④ |④-⑤-|
24
口口②② |①---|
口口①① |②---|
④④口口 |③---|
③③口口 |④---|
25
②②口口 |①---|
①①口口 |--②-|
③③③③ |----|
口口口口 |③---|
26
②③④⑤ |--①-|
①①①① |----|
口口口口 |②-③-|
⑤④③② |④-⑤-|
27
口口口口 |①--②|
②③①④ |-③-④|
④①③②
口口口口

口⑦口口
口口⑥口
口⑤口口 |--⑤-|
口口口口 |⑥-⑦-|
28
口口口口 |①--②|
③③③③ |--③-|
②②②②
①①①①

口口④⑤
口口口口
口口口口 |----|
⑤④口口 |④-⑤-|
29
口口口口 |①--②|
②③①④ |-③-④|
④①③②
口口口口

口口口口
口口⑤口
口⑥口口 |--⑤-|
口口⑦口 |⑥-⑦-|
30
①①①① |①--②|
②②②② |--③-|
③③③③
口口口口

口口④⑤
口口口口
口口口口 |----|
⑤④口口 |④-⑤-|
31
口口口口 |①--②|
②③①④ |-③-④|
④①③②
口口口口

口口口口
口口口口
口⑦⑦口 |--⑤-|
⑤⑥⑥⑤ |⑥-⑦-|
32
③②①③ |①--②|
②②①① |--③-|
②口口①
口口口口

口口口口
口⑤⑤口
口口口口 |--④-|
⑥④④⑥ |⑤-⑥-|
33
⑤④④口 |①--②|
②口口② |--③-|
③①①③ |--④-|
口口口⑤ |--⑤-|
34
口口口③ |①-②-|
④①②口 |③-④-|
口②①④
③口口口

口⑤⑥⑦
口口口口
口口口口 |--⑤-|
⑦⑥⑤口 |⑥-⑦-|
35
口口口口 |①--②|
②③①④ |-③-④|
④①③②
口口口口

⑥⑤口口
⑦口口口
口口口⑦ |--⑤-|
口口⑤⑥ |⑥-⑦-|
36
口口①① |①--②|
口②②口 |--③-|
③③口口
口口口口

口口④⑤
口口口口
口口口口 |----|
⑤④口口 |④-⑤-|
37
口口口口 |①--②|
②③①④ |-③-④|
④①③②
口口口口

⑦口口口
⑥口⑤口
口⑤口⑥ |--⑤-|
口口口⑦ |⑥-⑦-|
38
口①①口 |①--②|
口口②② |--③-|
口③③口
口口口口

口口④⑤
口口口口
口口口口 |----|
⑤④口口 |④-⑤-|
39
口口口口 |①--②|
②③①④ |-③-④|
④①③②
口口口口

口口口口
口口⑦口
口口口口 |--⑤-|
口⑤⑥⑤ |⑥-⑦-|
40
口①②① |①--②|
③②口② |--③-|
③①②①
口口口口

口口口口
口⑤⑤口
口口口口 |--④-|
⑥④④⑥ |⑤-⑥-|
41
⑤④④口 |①--②|
②口口② |--③-|
③①①③ |--④-|
口口口⑤ |--⑤-|
42
口口口③ |①-②-|
④①②口 |③-④-|
口②①④
③口口口

口⑤⑥⑦
口口口口
口口口口 |--⑤-|
⑦⑥⑤口 |⑥-⑦-|
43
口口口口 |①--②|
②③①④ |-③-④|
④①③②
口口口口

口⑦口口
口口⑥口
口⑤口口 |--⑤-|
口口口口 |⑥-⑦-|
44
口口口口 |①--②|
③③③③ |--③-|
②②②②
①①①①

口口④⑤
口口口口
口口口口 |----|
⑤④口口 |④-⑤-|
45
口口口口 |①--②|
②③①④ |-③-④|
④①③②
口口口口

口口口口
口口⑤口
口⑥口口 |--⑤-|
口口⑦口 |⑥-⑦-|
46
①①①① |①--②|
②②②② |--③-|
③③③③
口口口口

口口④⑤
口口口口
口口口口 |----|
⑤④口口 |④-⑤-|
47
口口口口 |①--②|
②③①④ |-③-④|
④①③②
口口口口

口口口口
口口口口
口⑦⑦口 |--⑤-|
⑤⑥⑥⑤ |⑥-⑦-|
48
③②①③ |①--②|
②②①① |--③-|
②口口①
口口口口

口口口口
口⑤⑤口
口口口口 |--④-|
⑥④④⑥ |⑤-⑥-|
49
⑤④④口 |①--②|
②口口② |--③-|
③①①③ |--④-|
口口口⑤ |--⑤-|
50
口口口③ |①-②-|
④①②口 |③-④-|
口②①④
③口口口

口⑤⑥⑦
口口口口
口口口口 |--⑤-|
⑦⑥⑤口 |⑥-⑦-|
51
口口口口 |①--②|
②③①④ |-③-④|
④①③②
口口口口

⑥⑤口口
⑦口口口
口口口⑦ |--⑤-|
口口⑤⑥ |⑥-⑦-|
52
口口①① |①--②|
口②②口 |--③-|
③③口口
口口口口

口口④⑤
口口口口
口口口口 |----|
⑤④口口 |④-⑤-|
53
口口口口 |①--②|
②③①④ |-③-④|
④①③②
口口口口

⑦口口口
⑥口⑤口
口⑤口⑥ |--⑤-|
口口口⑦ |⑥-⑦-|
54
口①①口 |①--②|
口口②② |--③-|
口③③口
口口口口

口口④⑤
口口口口
口口口口 |----|
⑤④口口 |④-⑤-|
55
口口口口 |①--②|
②③①④ |-③-④|
④①③②
口口口口

口口口口
口口⑦口
口口口口 |--⑤-|
口⑤⑥⑤ |⑥-⑦-|
56
口①②① |①--②|
③②口② |--③-|
③①②①
口口口口

口口口口
口⑤⑤口
口口口口 |--④-|
⑥④④⑥ |⑤-⑥-|
57
⑤④④口 |①--②|
②口口② |--③-|
③①①③ |--④-|
口口口⑤ |--⑤-|
58
口口口③ |①-②-|
④①②口 |③-④-|
口②①④
③口口口

口⑥口⑥
口⑥⑥⑥
⑤口⑥口 |--⑤-|
口口口⑤ |--⑥-|
59
⑤口口⑤ |--①②|
④⑦⑦④ |-③-④|
③⑥⑥③ |-⑤--|
口①②口 |⑥-⑦-|
60
⑥①①⑥ |①-②③|
⑤⑧⑧⑤ |-④-⑤|
④⑦⑦④ |-⑥--|
口②③口 |⑦-⑧-|
61
⑥①①⑥ |①-②③|
⑤⑧⑧⑤ |-④-⑤|
④⑦⑦④ |-⑥--|
口②③口 |⑦-⑧-|
62
口①①口 |①-②③|
⑤口口⑤ |-④-⑤|
④口口④
口②③口

⑥⑦⑦⑥
口⑧⑧口
口口口口 |-⑥-⑦|
口口口口 |-⑧--|


不确定度: 0

最終更新:2012年11月23日 01:59