フルカラープログラム
UNISON SQUARE GARDEN

BASIC

Level: 3
BPM: 180-193
Notes: 189

全程BPM: 180-193飄忽不定
1
口口口口 |----|
口口口口 |----|
口口口口 |----|
口口口口 |----|
2
口口口口 |①---|
口口④③ |②---|
口①②口 |--③-|
口口口口 |--④-|
3
口口口口 |①---|
口口④③ |②---|
口①②口 |--③-|
口口口口 |--④-|
4
口口口口 |①---|
口口④③ |②---|
口①②口 |--③-|
口口口口 |--④-|
5
口口④口 |①---|
口③口口 |②---|
口①②口 |③---|
口口口口 |④---|
6
口口口口 |①---|
口口口口 |----|
①②口口 |②---|
口口口口 |----|
7
口口口口 |①---|
口口①口 |----|
口口口② |②---|
口口口口 |----|
8
口口口口 |①---|
①②口口 |----|
口口口口 |②---|
口口口口 |----|
9
口口口口 |①---|
口口口② |----|
口口①口 |②---|
口口口口 |----|
10
口口口口 |①---|
口①①口 |----|
口口口口 |----|
口口口口 |----|
11
口口口口 |①---|
口口口口 |②---|
口③②① |③---|
口口口口 |----|
12
口口口口 |①---|
口②①口 |----|
口口口口 |②---|
口口口口 |----|
13
口口口口 |①---|
口口口口 |②---|
①②③口 |③---|
口口口口 |----|
14
口口口口 |①---|
口口口口 |----|
①②口口 |②---|
口口口口 |----|
15
口口口口 |①---|
口口①口 |----|
口口口② |②---|
口口口口 |----|
16
口口口口 |①---|
①②口口 |----|
口口口口 |②---|
口口口口 |----|
17
口口口口 |①---|
口口口② |----|
口口①口 |②---|
口口口口 |----|
18
口口口口 |①---|
口①①口 |----|
口口口口 |----|
口口口口 |----|
19
口口口口 |①---|
口口口口 |②---|
口③②① |③---|
口口口口 |----|
20
口口口口 |①---|
口①②口 |----|
口口口口 |②---|
口口口口 |----|
21
口口口口 |①---|
口口口口 |----|
口口口口 |----|
口①①口 |----|
22
口口口口 |①---|
③④口口 |②---|
口②①口 |--③-|
口口口口 |--④-|
23
口口口口 |①---|
③④口口 |②---|
口②①口 |--③-|
口口口口 |--④-|
24
口口口口 |①---|
③④口口 |②---|
口②①口 |--③-|
口口口口 |--④-|
25
口口口口 |①---|
口口③④ |②---|
口②①口 |③---|
口口口口 |④---|
26
口口②① |①---|
口口口口 |----|
口口口口 |②---|
口口口口 |----|
27
②①口口 |①---|
口口口口 |----|
口口口口 |②---|
口口口口 |----|
28
口口口口 |①---|
口②①口 |----|
口口口口 |②---|
口口口口 |----|
29
口口口口 |①---|
口口口口 |----|
口①②口 |②---|
口口口口 |----|
30
口口口口 |①---|
口口口口 |----|
②口口口 |②---|
口①①口 |----|
31
口口口口 |①---|
口口口口 |----|
口口②口 |②---|
口①口口 |----|
32
口口口口 |①---|
口口口口 |----|
口②口口 |②---|
口口口① |----|
33
口口口口 |①---|
④③②① |②---|
口口口口 |③---|
口口口口 |④---|
34
口口口口 |----|
口口口口 |----|
口①口口 |①---|
口口口口 |----|
35
口口口口 |①---|
口口口② |----|
口口①口 |②---|
口口口口 |----|
36
口口口口 |①---|
口②①口 |----|
口口口口 |②---|
口口口口 |----|
37
口①②口 |①---|
口口口口 |----|
口口口口 |②---|
口口口口 |----|
38
口口口口 |①---|
②①①口 |----|
口口口口 |②---|
口口口口 |----|
39
口①口口 |①---|
口口②口 |----|
口口口口 |②---|
口口口口 |----|
40
口口口① |①---|
口②口口 |----|
口口口口 |②---|
口口口口 |----|
41
口口口口 |①---|
口口口口 |②---|
④③②① |③---|
口口口口 |④---|
42
口口口口 |①---|
口①①口 |----|
口口口口 |----|
口口口口 |----|
43
口口口口 |①---|
口口口口 |----|
口①①口 |----|
口口口口 |----|
44
口口口口 |①---|
口口口口 |----|
口口口② |----|
口①①口 |②---|
45
口口口口 |①---|
口口口口 |②---|
②③①口 |③---|
口口口口 |----|
46
口①①口 |①---|
②口口口 |----|
口口口口 |②---|
口口口口 |----|
47
口口口口 |①---|
口口②口 |----|
口①口口 |②---|
口口口口 |----|
48
口口口口 |①---|
口口口口 |②---|
④③②① |③---|
口口口口 |④---|
49
口口口口 |①---|
口①①口 |----|
口口口口 |②---|
口②②口 |----|
50
口口口口 |①---|
①口口② |----|
口口口口 |②---|
口口口口 |----|
51
口口口口 |①---|
口口口口 |----|
口①②口 |②---|
口口口口 |----|
52
口口口口 |①---|
①②③④ |②---|
口口口口 |③---|
口口口口 |④---|
53
口①①口 |①---|
口口口口 |----|
口②②口 |②---|
口口口口 |----|
54
口口口口 |①---|
口口口口 |----|
口口口口 |②---|
①口口② |----|
55
口口口口 |①---|
口口口口 |----|
口①②口 |②---|
口口口口 |----|
56
口口口口 |①---|
④③②① |②---|
口口口口 |③---|
口口口口 |④---|
57
口①①口 |①---|
口口口口 |----|
口②②口 |②---|
口口口口 |----|
58
①口口② |①---|
口口口口 |----|
口口口口 |②---|
口口口口 |----|
59
口口口口 |①---|
口①②口 |----|
口口口口 |②---|
口口口口 |----|
60
口口口口 |①---|
口口口口 |②---|
④③②① |③---|
口口口口 |④---|
61
口口口口 |①---|
口口口口 |----|
口口口口 |②---|
②①①口 |----|
62
口口口口 |①---|
口口口口 |----|
口①口口 |②---|
口口②口 |----|
63
口口口口 |①---|
口口②口 |----|
口口口① |②---|
口口口口 |----|
64
口口口口 |①---|
①口口① |----|
②口口② |②---|
口口口口 |----|
65
口口③口 |①---|
口②口口 |②---|
口口①口 |③---|
口口口口 |----|
66
口口口口 |①---|
③口口③ |----|
②口口② |②---|
口①①口 |③---|
67
口口口口 |①---|
口①①口 |----|
口口口② |②---|
口口口口 |----|
68
口口口口 |①---|
②口口② |----|
①口口口 |②---|
口口口口 |----|
69
口②①口 |①---|
口口口口 |----|
口口口口 |②---|
口口口口 |----|
70
口口口口 |①---|
口①①口 |----|
口口口口 |----|
口口口口 |----|


不确定度: 0

最終更新:2012年11月23日 01:59