フルカラープログラム
UNISON SQUARE GARDEN

ADVANCED

Level: 6
BPM: 180-193
Notes: 335

全程BPM: 180-193飄忽不定
1
口口口口 |----|
口口口口 |----|
口口口口 |----|
口口口口 |----|
2
口口③口 |①---|
口口④⑤ |②---|
①②口口 |③-④-|
口口口口 |--⑤-|
3
口口③口 |①---|
口口④⑤ |②---|
①②口口 |③-④-|
口口口口 |--⑤-|
4
口口③口 |①---|
口口④⑤ |②---|
①②口口 |③-④-|
口口口口 |--⑤-|
5
口口口口 |①---|
口口口口 |②---|
口口口口 |③---|
③①②④ |④---|
6
口口口口 |①---|
口①①口 |--②-|
口②③④ |--③-|
口口口口 |--④-|
7
口口口口 |--①-|
③口口② |--②-|
①口口口 |--③-|
口口口口 |----|
8
口口口口 |①---|
口①①口 |--②-|
口②③④ |--③-|
口口口口 |--④-|
9
口口口口 |--①-|
③口口② |--②-|
①口口口 |--③-|
口口口口 |----|
10
口口口口 |①---|
口口口口 |----|
口①①口 |----|
口口口口 |----|
11
口①口口 |①---|
口口②③ |②-③-|
口口口口 |--④-|
④口⑤口 |--⑤-|
12
⑥口口口 |①-②-|
口⑤⑤口 |③-④-|
①③④② |--⑤-|
口口口口 |--⑥-|
13
口②②① |①---|
口口口口 |--②-|
口口口口 |----|
口口口口 |----|
14
口口口口 |①---|
口①①口 |--②-|
口②③④ |--③-|
口口口口 |--④-|
15
口口口口 |--①-|
③口口② |--②-|
①口口口 |--③-|
口口口口 |----|
16
口口口口 |①---|
口①口口 |--②-|
口②③④ |--③-|
口口口口 |--④-|
17
口口口口 |--①-|
③口口② |--②-|
①口口口 |--③-|
口口口口 |----|
18
口口口口 |①---|
口口口口 |----|
口①①口 |----|
口口口口 |----|
19
口①口口 |①---|
口口②③ |②-③-|
口口口口 |--④-|
④口口⑤ |--⑤-|
20
⑦口口口 |①-②-|
口②④⑥ |③-④-|
⑤①③口 |--⑤-|
口口口口 |⑥-⑦-|
21
口口口口 |----|
口口口口 |----|
口口口口 |----|
口口口口 |----|
22
口口口口 |①---|
口口②① |②---|
⑤④口口 |③-④-|
口③口口 |--⑤-|
23
口口口口 |①---|
口口②① |②---|
⑤④口口 |③-④-|
口③口口 |--⑤-|
24
口口口口 |①---|
口口②① |②---|
⑤④口口 |③-④-|
口③口口 |--⑤-|
25
口口③口 |①---|
④②口④ |②---|
口口①口 |③---|
口口口口 |④---|
26
口口口口 |----|
口②口口 |①---|
③①口口 |②---|
口口口口 |③---|
27
口口口口 |①---|
①口③口 |②---|
口口②④ |③---|
口口口口 |④---|
28
口口口口 |①---|
口口口① |②-③-|
口⑤④口 |----|
口②③口 |④-⑤-|
29
口②②口 |----|
④①①④ |①-②-|
口③③口 |----|
口口口口 |③-④-|
30
口口口口 |----|
口口口口 |----|
口口口口 |①---|
口①②口 |②---|
31
口④口口 |①---|
②口口③ |②-③-|
⑤口①口 |--④-|
口口口口 |--⑤-|
32
口口口口 |①---|
口口④口 |②-③-|
口③⑤① |④---|
口口②口 |--⑤-|
33
④口口④ |①---|
③口口③ |②---|
②口口② |③---|
①口口① |④---|
34
口口口口 |----|
口口①③ |①---|
口口②口 |②---|
口口口口 |③---|
35
口口口口 |①---|
④②口口 |②---|
口③口① |③---|
口口口口 |④---|
36
口③②口 |①---|
口④⑤口 |②-③-|
①口口口 |----|
口口口口 |④-⑤-|
37
口口口口 |----|
口③③口 |①-②-|
④①①④ |----|
口②②口 |③-④-|
38
口②①口 |----|
口口口口 |----|
口口口口 |①---|
口口口口 |②---|
39
口口口口 |①---|
口①口⑤ |②-③-|
③口口② |--④-|
口口④口 |--⑤-|
40
口②②口 |①---|
①口口口 |----|
口口口口 |----|
口口口口 |②---|
41
①口口① |①---|
②口口② |②---|
③口口③ |③---|
④口口④ |④---|
42
口③④口 |①-②-|
口①②口 |③-④-|
口口口口 |----|
⑤⑥口口 |⑤-⑥-|
43
口口口口 |①-②-|
④⑤口口 |③---|
口①②③ |----|
口口口口 |④-⑤-|
44
口口②③ |①-②-|
口口①口 |③---|
口口口口 |----|
④⑤口口 |④-⑤-|
45
口口口口 |①-②-|
⑤口口④ |③---|
口①②③ |④---|
口口口口 |⑤---|
46
口①口口 |①---|
口口口口 |----|
②口③④ |②---|
口口口口 |③-④-|
47
③④⑤口 |----|
口①②口 |①-②-|
口口口口 |--③-|
口口口口 |④-⑤-|
48
口口口口 |①---|
口⑤⑤① |②-③-|
④口口④ |--④-|
口②③口 |--⑤-|
49
①②口③ |----|
口口口口 |--①-|
口口口口 |②---|
口口口口 |③---|
50
⑤口口口 |①---|
④口口口 |②-③-|
③①①③ |----|
②口口② |④-⑤-|
51
口口口② |----|
口口口① |①-②-|
口④口口 |----|
口口③口 |③-④-|
52
③④⑤⑥ |----|
②口①口 |①-②-|
口口口口 |③-④-|
口口口口 |⑤-⑥-|
53
口口口口 |①---|
口口⑤① |--②-|
口④口口 |--③-|
口③口② |④-⑤-|
54
口口①口 |①---|
②口口③ |②-③-|
口口⑤口 |--④-|
口④口口 |--⑤-|
55
口③②口 |--①-|
口①口口 |--②-|
口口口口 |--③-|
口④④口 |--④-|
56
口口口口 |----|
口口口口 |①---|
②③④⑤ |②-③-|
①口口① |④-⑤-|
57
②③⑤④ |①---|
口①口口 |②-③-|
口口口口 |--④-|
口口口口 |⑤---|
58
口口口口 |①---|
口⑤口口 |②-③-|
④①①④ |--④-|
②③③② |--⑤-|
59
口口③④ |①-②-|
口口②① |--③-|
口口口口 |--④-|
口口⑤口 |--⑤-|
60
口⑤⑥⑦ |①-②-|
口口口④ |③-④-|
③②口① |--⑤-|
口口口口 |⑥-⑦-|
61
口口口口 |①---|
口⑤①口 |--②-|
口③④口 |--③-|
口口口② |④-⑤-|
62
口口口口 |①---|
②口①③ |②-③-|
口口⑤口 |--④-|
口④口口 |--⑤-|
63
③口②③ |--①-|
口①口口 |--②-|
口口口口 |----|
口口口口 |③---|
64
口口口口 |①---|
①口口① |----|
口②②口 |②---|
口口口口 |----|
65
口口⑤口 |①-②-|
口⑥口口 |③---|
口口口④ |④---|
①②③口 |⑤-⑥-|
66
①口口口 |①-②-|
口口②③ |--③-|
口⑦⑤口 |④-⑤-|
口⑥④口 |⑥-⑦-|
67
口口口口 |①---|
②③④⑤ |--②-|
①口⑥① |③-④-|
口口口口 |⑤-⑥-|
68
口③②口 |①---|
④口口口 |②---|
口①口口 |③---|
口口口口 |④---|
69
口口口口 |①---|
⑥口③⑥ |②-③-|
⑤②口⑤ |---④|
④口①④ |-⑤-⑥|


不确定度: 0

最終更新:2012年11月23日 01:59