フルカラープログラム
UNISON SQUARE GARDEN

EXTREME

Level: 7
BPM: 180-193
Notes: 460

全程BPM: 180-193飄忽不定
1
口口口口 |----|
口口口口 |----|
口口口口 |----|
口口口口 |----|
2
口口口② |①---|
①口口口 |②---|
口⑤⑤③ |③-④-|
口④④口 |--⑤-|
3
②④④口 |①---|
口⑤⑤① |②---|
③口口口 |③-④-|
口口口口 |--⑤-|
4
口口口口 |①---|
③口口口 |②---|
口⑤⑤① |③-④-|
②④④口 |--⑤-|
5
⑨①①⑧ |①-②③|
⑦⑩⑩② |④-⑤⑥|
③口口⑥ |⑦-⑧⑨|
⑤口口④ |⑩---|
6
③口口④ |①---|
④口口② |--②-|
口口口口 |--③-|
口①①口 |--④-|
7
③口④口 |--①-|
口口口② |--②-|
②口口① |--③-|
①⑤口③ |④-⑤-|
8
④口口③ |①---|
②口口④ |--②-|
口①①口 |--③-|
口口口口 |--④-|
9
口⑤口③ |--①-|
②口口口 |--②-|
①口口② |--③-|
③口④① |④-⑤-|
10
口口口口 |①---|
②①①口 |----|
口①①③ |②---|
口口口口 |③---|
11
③⑥口④ |①---|
口口⑤② |②-③-|
①口口口 |--④-|
口口口口 |⑤-⑥-|
12
口口⑤口 |①-②-|
口⑥⑥④ |③-④-|
②⑦①口 |⑤-⑥-|
口口③口 |--⑦-|
13
口②口③ |①-②-|
口口口口 |③-④-|
口口口① |----|
④口口④ |----|
14
③口口④ |①---|
④口口② |--②-|
口口口口 |--③-|
口①①口 |--④-|
15
③口⑤口 |--①-|
口口口② |--②-|
②口口① |--③-|
①④口③ |④-⑤-|
16
④口口③ |①---|
②口口④ |--②-|
口①①口 |--③-|
口口口口 |--④-|
17
口⑤口③ |--①-|
②口口口 |--②-|
①口口② |--③-|
③口④① |④-⑤-|
18
口口口口 |①---|
③①①口 |②-③-|
口①①②
口口口口

口口⑤④
口⑥口口
口口口口 |④---|
口口口口 |⑤-⑥-|
19
③口口④ |①---|
⑤口口② |②-③-|
口口①⑥ |④-⑤-|
口⑦口口 |⑥-⑦-|
20
口⑥④口 |①-②-|
口③⑦⑤ |③-④-|
口⑧②口 |⑤-⑥-|
口口①口 |⑦-⑧-|
21
②口口① |--①-|
口口口口 |②---|
⑥口口③ |③-④-|
④口口⑤ |⑤-⑥-|
22
口口口② |①---|
口口口① |②---|
口口口口
口口口口

口口口口
口③口⑤
口口④口 |③-④-|
口口口口 |--⑤-|
23
口口口口 |①---|
口④口口 |②---|
⑤口③口 |③-④-|
②口口① |--⑤-|
24
①口口② |①---|
口③口⑤ |②---|
口口④口 |③-④-|
口口口口 |--⑤-|
25
口③⑤口 |①---|
口口口口 |②---|
口⑥④口 |③-④-|
②口口① |⑤-⑥-|
26
①口口口 |----|
⑤③②口 |①--②----|
口口⑥④ |③-④-|
口口口口 |⑤-⑥-|
27
⑦口口口 |①-②-|
口⑤⑧口 |③-④-|
③①口⑥ |⑤-⑥-|
口口④② |⑦-⑧-|
28
口①口口 |①---|
口口口② |②-③-|
③⑤口口 |----|
口口④口 |④-⑤-|
29
④④④④ |----|
口③③口 |①-②-|
②口口② |----|
①口口① |③-④-|
30
口口口口 |----|
②口口③ |----|
口口口口 |①-②-|
④口口① |③-④-|
31
⑤口③⑤ |①-②-|
口②口口 |③-④-|
⑥口①⑥ |--⑤-|
口④口口 |--⑥-|
32
口口口口 |①---|
口口④口 |②-③-|
口③口⑤ |④---|
①口②① |--⑤-|
33
④口④口 |①---|
口③口③ |②---|
②口②口 |③---|
口①口口 |④---|
34
口口口口 |----|
口口口④ |①-②-|
⑤③②口 |③---|
①口口口 |④-⑤-|
35
口口⑤③ |①---|
④②①口 |②-③-|
口口口口 |④---|
口口口口 |⑤---|
36
口④口口 |①---|
口口⑤③ |②-③-|
②口口口 |----|
口口口① |④-⑤-|
37
②口口② |----|
①口口① |①-②-|
口③③口 |----|
④④④④ |③-④-|
38
④口口① |----|
口口口口 |----|
②口口③ |①-②-|
口口口口 |③-④-|
39
口口口口 |①---|
①②口① |②-③-|
口口③口
口口口口

口口口口
⑤口口⑤
口口口口 |--④-|
④口口④ |--⑤-|
40
①口口① |①---|
口口②口 |----|
口③口口 |----|
口口口口 |②-③-|
41
④口④口 |①---|
口③口③ |②---|
②口②口 |③---|
口口①口 |④---|
42
口口口口 |①-②-|
④口口口 |③-④-|
⑤③口① |----|
口⑥②口 |⑤-⑥-|
43
口⑤③口 |①-②-|
④口口② |③---|
口口①口 |----|
口口口口 |④-⑤-|
44
口口⑤口 |①-②-|
口口①④ |③---|
口口口② |----|
口口③口 |④-⑤-|
45
口⑥口口 |①-②-|
⑤①⑦口 |③-④-|
②口④⑧ |⑤-⑥-|
口③口口 |⑦-⑧-|
46
口④口口 |①---|
口口③口 |----|
口②口口 |②---|
口口①口 |③-④-|
47
①口③① |----|
②④口② |①-②-|
口口⑤口 |--③-|
口口口口 |④-⑤-|
48
⑤口口⑤ |①---|
口④④口 |②-③-|
③口口③ |--④-|
②①①② |--⑤-|
49
口①口口 |----|
口口②口 |--①-|
口口口口 |②---|
口③③口 |③---|
50
③⑤口③ |①---|
②④口② |②-③-|
①①①① |----|
口口口口 |④-⑤-|
51
口口口口 |----|
口口④口 |①-②-|
口③②口 |----|
口口①口 |③-④-|
52
口③④口 |----|
②口口⑤ |①-②-|
①口口⑥ |③-④-|
口口口口 |⑤-⑥-|
53
口口口口 |①---|
口①①口 |--②-|
口④口⑤ |--③-|
②口③口 |④-⑤-|
54
②⑥⑤② |①---|
①④③① |②-③-|
口口口口 |④-⑤-|
口⑦⑦口 |⑥-⑦-|
55
③④④③ |--①-|
②口口② |--②-|
①口口① |--③-|
口口口口 |--④-|
56
口口口口 |--①-|
口口①口 |②-③-|
④②⑥口 |④-⑤-|
口⑤③⑦ |⑥-⑦-|
57
④⑤⑤③ |①---|
②①②① |②-③-|
口口口口 |--④-|
口口口口 |⑤---|
58
⑥口口口 |①-②-|
口⑤⑤口 |③-④-|
口口口口 |--⑤-|
④③②① |--⑥-|
59
口①②③ |①-②-|
④口口④ |③-④-|
口⑤⑤⑥ |--⑤-|
口口口口 |--⑥-|
60
口口⑤口 |①-②-|
④口口⑥ |③-④-|
③口口⑦ |--⑤-|
口②①口 |⑥-⑦-|
61
口口⑤口 |①---|
④①①口 |--②-|
口口③口 |--③-|
②口口口 |④-⑤-|
62
①口⑥① |①---|
口⑤口口 |②-③-|
口③④口 |--④-|
口口口② |⑤-⑥-|
63
口①口口 |--①-|
口口②口 |②-③-|
口③口口 |----|
④口口④ |④---|
64
口口口口 |①---|
②②②② |----|
①口口① |②---|
口口口口 |----|
65
口②①口 |①-②-|
口⑥口口 |③---|
口③③⑤ |④---|
口④④口 |⑤-⑥-|
66
口⑤⑦口 |①-②-|
口口①口 |--③-|
②④⑥口 |④-⑤-|
口口③口 |⑥-⑦-|
67
口⑥口口 |①---|
口口口口 |--②-|
②口口⑤ |③-④-|
①③④① |⑤-⑥-|
68
④口③④ |①---|
口口口口 |②---|
口②①口 |③---|
口口口口 |④---|
69
口口口口 |①---|
②⑥⑥② |②-③-|
①⑤⑤① |---④|
③④④③ |-⑤-⑥|


不确定度: 0

最終更新:2012年11月23日 01:58