ふりぃ
阿部真央

BASIC

Level: 3
BPM: 181
Notes: 233

1
口口口口 |----|
口口口口 |----|
口口口口 |----|
口口口口 |----|
2
口口口口 |①---|
①②口口 |----|
口口口口 |②---|
口口口口 |----|
3
口口口口 |①---|
口口①② |----|
口口口口 |②---|
口口口口 |----|
4
口口口口 |①---|
口口口口 |----|
口①口口 |----|
口口口口 |----|
5
口口口口 |①---|
口②口口 |----|
口口①口 |②---|
口口口口 |----|
6
口口口口 |①---|
口口①口 |----|
口②口口 |②---|
口口口口 |----|
7
口口口口 |①---|
口口口口 |----|
口口①口 |②---|
口②口③ |--③-|
8
口口口口 |--①-|
口口口① |----|
口口口口 |----|
口口口口 |----|
9
口口口口 |----|
口口口口 |----|
口口口口 |----|
口口口口 |----|
10
口口口口 |①---|
①②口口 |----|
口口口口 |②---|
口口口口 |----|
11
口口口口 |①---|
口口①② |----|
口口口口 |②---|
口口口口 |----|
12
口口口口 |①---|
口口口口 |----|
口口②① |②---|
口口口口 |----|
13
口口口口 |①---|
口口口口 |----|
②①口口 |②---|
口口口口 |----|
14
①②口口 |①---|
口口口口 |----|
口口口口 |②---|
口口口口 |----|
15
口口①② |①---|
口口③口 |----|
口口口口 |②---|
口口口口 |--③-|
16
口口口口 |--①-|
口口口口 |----|
口口①口 |----|
口口口口 |----|
17
口口口口 |----|
口口口口 |----|
口口口口 |----|
口口口口 |----|
18
③口口④ |①---|
口②②口 |②---|
口①①口 |③---|
口口口口 |④---|
19
口口口口 |----|
口口口口 |----|
口口口口 |①---|
①口口口 |----|
20
口口口口 |①---|
口口口口 |----|
口口口口 |----|
口口口① |----|
21
口①①口 |----|
口口口口 |----|
口口口口 |①---|
口口口口 |----|
22
口口口口 |①---|
口①①口 |----|
口口口口 |----|
口②②口 |②---|
23
①口口口 |----|
口口口口 |----|
口口口口 |----|
口口口口 |①---|
24
口口口口 |①---|
口①②③ |--②-|
口口口口 |----|
口口口口 |③---|
25
口口口口 |----|
口口口口 |①---|
③②①口 |②---|
口口口口 |③---|
26
口口口口 |①---|
口口口口 |----|
口口口口 |----|
口①①口 |----|
27
口口口口 |①---|
口②②口 |----|
口①①口 |②---|
口口口口 |----|
28
口①①口 |①---|
口口口口 |----|
口口口口 |----|
口口口口 |----|
29
口口口口 |----|
①②口口 |----|
口口口口 |①---|
口口口口 |②---|
30
口口口口 |①---|
口口①口 |----|
口口口口 |----|
口口口口 |----|
31
口口口口 |①---|
口口口口 |②---|
④③②① |③---|
口口口口 |④---|
32
口①①口 |①---|
口口口口 |----|
口口口口 |----|
口口口口 |----|
33
口口口口 |①---|
口①①口 |----|
②口口② |②---|
③口口③ |③---|
34
口口口口 |①---|
口口口口 |----|
口口口口 |----|
口①①口 |----|
35
口口口口 |①---|
口②②口 |----|
口①①口 |②---|
口口口口 |----|
36
口①①口 |①---|
口口口口 |----|
口口口口 |----|
口口口口 |----|
37
口口口口 |----|
①口②口 |①---|
口口口口 |----|
口口口口 |②---|
38
口口口口 |①---|
口口口① |----|
口口口口 |----|
口口口口 |----|
39
口口口口 |①---|
口口口口 |②---|
④③②① |③---|
口口口口 |④---|
40
口①①口 |①---|
口口口口 |----|
口口口口 |----|
口口口口 |----|
41
口口口口 |①---|
②①①② |②---|
③口口③ |③---|
④口口④ |④---|
42
口口口口 |①---|
口口口口 |----|
口口口口 |----|
口①①口 |----|
43
口①①口 |①---|
口口口口 |----|
口口口口 |----|
口口口口 |----|
44
口口口口 |①---|
口①①口 |----|
口口口口 |----|
口口口口 |----|
45
口口口口 |----|
口口口口 |----|
口②②口 |①---|
口①①口 |②---|
46
口口口口 |①---|
口①①口 |----|
口口口口 |----|
口口口口 |----|
47
①口口① |①---|
②口口② |----|
口口口口 |②---|
口口口口 |----|
48
口口口口 |①---|
口口口口 |----|
①口口① |----|
口口口口 |----|
49
口③③口 |①---|
口②②口 |----|
口①①口 |②---|
口口口口 |③---|
50
口③③口 |①---|
口②②口 |----|
口口口口 |②---|
口①①口 |③---|
51
口口口口 |①---|
口③③口 |--②-|
口②②口 |----|
口①①口 |③---|
52
口口口口 |----|
口口口口 |----|
口口口口 |----|
口口口口 |----|
53
口口口口 |①---|
①②口口 |----|
口口口口 |②---|
口口口口 |----|
54
口口口口 |①---|
口口①② |----|
口口口口 |②---|
口口口口 |----|
55
口口口口 |①---|
口口口口 |----|
口①口口 |----|
口口口口 |----|
56
口口口口 |①---|
口②口口 |----|
口口①口 |②---|
口口口口 |----|
57
口口口口 |①---|
口口①口 |----|
口②口口 |②---|
口口口口 |----|
58
口口口口 |①---|
口口口口 |----|
口口①口 |②---|
口②口③ |--③-|
59
口口口口 |--①-|
口口口① |----|
口口口口 |----|
口口口口 |----|
60
口口口口 |----|
口口口口 |----|
口口口口 |----|
口口口口 |----|
61
口口口口 |①---|
①②口口 |----|
口口口口 |②---|
口口口口 |----|
62
口口口口 |①---|
口口①② |----|
口口口口 |②---|
口口口口 |----|
63
口口口口 |①---|
口口口口 |----|
口口②① |②---|
口口口口 |----|
64
口口口口 |①---|
④口口口 |②---|
③①口口 |③---|
②口口口 |④---|
65
①②口口 |①---|
口口口口 |----|
口口口口 |②---|
口口口口 |----|
66
口口①② |①---|
口口③口 |----|
口口口口 |②---|
口口口口 |--③-|
67
口口口口 |--①-|
口口口口 |----|
口口①口 |----|
口口口口 |----|
68
口口口口 |----|
口口口口 |----|
口口口口 |----|
口口口口 |----|
69
③口口③ |①---|
口②②口 |②---|
口①①口 |③---|
口口口口 |----|
70
口口口口 |----|
口口口口 |----|
口口口口 |①---|
①口口口 |----|
71
口口口口 |①---|
口口口口 |----|
口口口口 |----|
口口口① |----|
72
口①①口 |----|
口口口口 |----|
口口口口 |①---|
口口口口 |----|
73
口口口口 |①---|
口①①口 |----|
口口口口 |----|
口②②口 |②---|
74
①口口口 |----|
口口口口 |----|
口口口口 |----|
口口口口 |①---|
75
口口口口 |①---|
口①②③ |--②-|
口口口口 |----|
口口口口 |③---|
76
口口口口 |①---|
口口口口 |②---|
④③②① |③---|
口口口口 |④---|
77
口口口口 |①---|
口口口口 |----|
口口口口 |----|
口①①口 |----|
78
口口口口 |①---|
口②②口 |----|
口①①口 |②---|
口口口口 |----|
79
口①①口 |①---|
口口口口 |----|
口口口口 |----|
口口口口 |----|
80
口口口口 |----|
①②口口 |----|
口口口口 |①---|
口口口口 |②---|
81
口口口口 |①---|
口口①口 |----|
口口口口 |----|
口口口口 |----|
82
口口口口 |①---|
口口口口 |②---|
④③②① |③---|
口口口口 |④---|
83
口①①口 |①---|
口口口口 |----|
口口口口 |----|
口口口口 |----|
84
口口口口 |①---|
口①①口 |----|
②口口② |②---|
③口口③ |③---|
85
口口口口 |①---|
口口口口 |----|
口口口口 |----|
口①①口 |----|
86
口口口口 |①---|
口②②口 |----|
口①①口 |②---|
口口口口 |----|
87
口①①口 |①---|
口口口口 |----|
口口口口 |----|
口口口口 |----|
88
口口口口 |----|
口①②口 |----|
口口口口 |①---|
口口口口 |②---|
89
口口口口 |①---|
口口口① |----|
口口口口 |----|
口口口口 |----|
90
口口口口 |①---|
口口口口 |②---|
④③②① |③---|
口口口口 |④---|
91
②①①② |①---|
口口口口 |----|
口口口口 |②---|
口口口口 |----|
92
口口口口 |①---|
②①①② |②---|
③口口③ |③---|
④口口④ |④---|


不确定度: 0

最終更新:2012年11月23日 01:57