ふりぃ
阿部真央

ADVANCED

Level: 4
BPM: 181
Notes: 340

1
口口口口 |----|
口口口口 |----|
口口口口 |----|
口口口口 |----|
2
口口口口 |①---|
①②口口 |----|
口口口口 |②---|
口口口口 |----|
3
口口口口 |①---|
口口①② |----|
口口口口 |②---|
口口口口 |----|
4
口口口口 |①---|
口口口口 |----|
①口口口 |----|
口口口口 |----|
5
口⑤⑥口 |①-②-|
④口口③ |③-④-|
②⑦⑦① |⑤-⑥-|
口口口口 |--⑦-|
6
①口口② |----|
③口口口 |①---|
口口口口 |②---|
口口口口 |③---|
7
口口口口 |①---|
口口口① |②---|
②口口③ |③---|
口④⑤口 |④-⑤-|
8
口口口口 |--①-|
口①①口 |----|
口口口口 |----|
口口口口 |----|
9
口口口口 |----|
口口口口 |----|
口口口口 |----|
口口口口 |----|
10
口口口口 |①---|
①②口口 |----|
口口口口 |②---|
口口口口 |----|
11
口口口口 |①---|
口口①② |----|
口口口口 |②---|
口口口口 |----|
12
口口口口 |①---|
口口口口 |----|
口口②① |②---|
口口口口 |----|
13
口口口口 |①---|
口③③口 |----|
②①口口 |②---|
口口口口 |--③-|
14
①口口② |----|
③口口口 |①---|
口口口口 |②---|
口口口口 |③---|
15
口口口口 |①---|
口口口① |②---|
②口口③ |③---|
口④⑤口 |④-⑤-|
16
口口口口 |--①-|
口口口口 |----|
口①①口 |----|
口口口口 |----|
17
口口口口 |----|
口口口口 |----|
口口口口 |----|
口口口口 |----|
18
⑥口口⑥ |①-②-|
口①②口 |③-④-|
口③④口 |⑤---|
⑤口口⑤ |⑥---|
19
口口口口 |----|
①②口口 |--①-|
口口④③ |②---|
口口口口 |③-④-|
20
口口口口 |--①-|
口口口口 |----|
口口口口 |----|
口①①口 |----|
21
口口口口 |----|
③口口④ |----|
口口口口 |①-②-|
①口口② |③-④-|
22
口①①口 |--①-|
口口口口 |----|
口②②口 |----|
口口口口 |②---|
23
口口口口 |----|
口口口口 |----|
口口口口 |----|
①口口① |①---|
24
②口口② |①---|
口③③口 |--②-|
①口口① |----|
口口口口 |③---|
25
③口口③ |----|
②口口② |①---|
口口口口 |②---|
口①①口 |③---|
26
口①①口 |①---|
口口口口 |----|
口口口口 |----|
口口口口 |----|
27
口口口口 |①---|
口口口口 |----|
①②口口 |②---|
①②口口 |----|
28
口口口口 |①---|
口口口口 |----|
口口①口 |----|
口口①口 |----|
29
口口②① |----|
口口②① |----|
口口口口 |①---|
口口口口 |②---|
30
口①口口 |①---|
口①口口 |----|
口口口口 |----|
口口口口 |----|
31
口口口口 |①---|
口口口口 |②---|
①②口口 |③---|
口口③④ |④---|
32
口口①① |①---|
口口口口 |----|
口口口口 |----|
口口口口 |----|
33
①②口口 |①-②-|
口口③④ |--③-|
口⑤⑤口 |④---|
口口口口 |⑤---|
34
口口口口 |①---|
口口口口 |----|
口口口口 |----|
①口口① |----|
35
口口口口 |①---|
④②②④ |②---|
③①①③ |③---|
口口口口 |④---|
36
①口口① |①---|
口口口口 |----|
口口口口 |----|
口口口口 |----|
37
口①①口 |----|
口口口口 |①---|
口②②口 |----|
口口口口 |②---|
38
口口口口 |①---|
口口口口 |----|
口口口口 |----|
口①①口 |----|
39
口口口口 |①---|
口口口口 |②---|
①②③④ |③---|
口口口口 |④---|
40
口口口口 |①---|
口①①口 |----|
口口口口 |----|
口口口口 |----|
41
口口口口 |----|
①口口① |①---|
②口口② |②---|
③口口③ |③---|
42
①口口口 |①---|
口②③口 |--②-|
口口口口 |--③-|
口口口口 |----|
43
口口口口 |①---|
口口口口 |--②-|
①口口口 |--③-|
口②③④ |--④-|
44
口口口口 |----|
口口口口 |----|
口口口口 |----|
口口口口 |----|
45
口口口口 |----|
口②②口 |----|
口①①口 |①---|
口口口口 |②---|
46
口①①口 |①---|
口口口口 |----|
口口口口 |----|
口口口口 |----|
47
口口口口 |①---|
②口口② |----|
①口口① |②---|
口口口口 |----|
48
口①②口 |①---|
口③④口 |②---|
口口口口 |③---|
口口口口 |④---|
49
①②③④ |①-②-|
⑤口口⑥ |③-④-|
口口口口 |⑤---|
口口口口 |⑥---|
50
口口口口 |①-②-|
口口口口 |③-④-|
⑥口口⑤ |⑤---|
④③②① |⑥---|
51
④⑥⑥④ |①-②-|
口②②口 |--③-|
口①①口 |④---|
③⑤⑤③ |⑤-⑥-|
52
口口口口 |----|
口口口口 |----|
口口口口 |----|
口口口口 |----|
53
口口口口 |①---|
①②口口 |----|
口口口口 |②---|
口口口口 |----|
54
口口口口 |①---|
口口①② |----|
口口口口 |②---|
口口口口 |----|
55
口口口口 |①---|
口口口口 |----|
口①②口 |②---|
口口口口 |----|
56
口⑤⑥口 |①-②-|
④口口③ |③-④-|
②⑦⑦① |⑤-⑥-|
口口口口 |--⑦-|
57
①口口② |----|
③口口口 |①---|
口口口口 |②---|
口口口口 |③---|
58
口口口口 |①---|
口口口① |②---|
②口口③ |③---|
口④⑤口 |④-⑤-|
59
口口口口 |--①-|
口①①口 |----|
口口口口 |----|
口口口口 |----|
60
口口口口 |----|
口口口口 |----|
口口口口 |----|
口口口口 |----|
61
口口口口 |①---|
①②口口 |----|
口口口口 |②---|
口口口口 |----|
62
口口口口 |①---|
口口①② |----|
口口口口 |②---|
口口口口 |----|
63
口口口口 |①---|
口口口口 |----|
口口②① |②---|
口口口口 |----|
64
②③④口 |①---|
②③④口 |②---|
口①口口 |③---|
口口口口 |④---|
65
②口口③ |①---|
口④④口 |②---|
口口口口 |③---|
口①①口 |--④-|
66
口口口口 |----|
口口口口 |----|
②口口① |①-②-|
口③③口 |--③-|
67
②口口口 |--①-|
②口口口 |----|
口①①口 |----|
口口口口 |--②-|
68
口口口口 |----|
口口口口 |①---|
口①②③ |②---|
口①②③ |③---|
69
口①②口 |①-②-|
⑤③④⑤ |③-④-|
口⑥⑦口 |⑤---|
口口口口 |⑥-⑦-|
70
②口口② |--①-|
口③④口 |----|
口口口口 |②---|
①口口① |③-④-|
71
口口口口 |--①-|
口口口口 |②---|
口①②口 |----|
口口口口 |----|
72
口口口口 |----|
口①②口 |--①-|
口③④口 |②-③-|
⑤口口⑤ |④-⑤-|
73
①口口① |--①-|
口②②口 |----|
口②②口 |----|
口口口口 |②---|
74
口①①口 |----|
口口口口 |----|
口口口口 |----|
口口口口 |①---|
75
口口口口 |①---|
口①①口 |--②-|
②口口② |----|
口③③口 |③---|
76
③口口③ |①---|
口②②口 |②---|
口①①口 |③---|
④口口④ |④---|
77
口口口口 |①---|
口口口口 |----|
口①①口 |----|
口口口口 |----|
78
口②②口 |①---|
口①①口 |----|
口口口口 |②---|
口口口口 |----|
79
①口口① |①---|
口口口口 |----|
口口口口 |----|
口口口口 |----|
80
口口口口 |----|
①②口口 |----|
口口口口 |①---|
口口口口 |②---|
81
口口口口 |①---|
口口①口 |----|
口口口口 |----|
口口口口 |----|
82
口口口口 |①---|
口口口口 |②---|
④③②① |③---|
口口口口 |④---|
83
口口口口 |①---|
口口口口 |----|
口口口口 |----|
口①①口 |----|
84
口①②口 |①-②-|
口⑤⑤口 |--③-|
口⑤⑤口 |④---|
口③④口 |⑤---|
85
口口口口 |①---|
口口口口 |----|
①口口① |----|
口口口口 |----|
86
口④④口 |①---|
口③③口 |②---|
口②②口 |③---|
口①①口 |④---|
87
①口口① |①---|
口口口口 |----|
口口口口 |----|
口口口口 |----|
88
口口口口 |----|
②口口② |----|
①口口① |①---|
口口口口 |②---|
89
①口口① |①---|
口口口口 |----|
口口口口 |----|
口口口口 |----|
90
口口口口 |①---|
①②③④ |②---|
口口口口 |③---|
口口口口 |④---|
91
③②②③ |①---|
口口口口 |----|
口口口口 |②---|
口①①口 |③---|
92
口口口口 |①---|
①口口① |②-③-|
口②③口 |--④-|
口④⑤口 |⑤---|


不确定度: 0

最終更新:2012年11月23日 01:57