Riot of Color
TAG

EXTREME

Level: 10
BPM: 150
Notes: 855

1
口口口口 |----|
口口口口 |----|
口口口口 |----|
口口口口 |----|
2
⑨⑧⑦⑨ |①②-③|
③②①③ |--④⑤|
口口口口 |-⑥--|
⑥⑤④⑥ |⑦⑧-⑨|
3
口口口口 |--①②|
口口口口 |-③--|
③②①③
口口口口

⑨⑦⑧⑩
口口口④
口⑪口口 |④⑤⑥⑦|
口⑤口⑥ |⑧⑨⑩⑪|
4
⑨⑧⑦⑨ |①②-③|
③②①③ |--④⑤|
口口口口 |-⑥--|
⑥⑤④⑥ |⑦⑧-⑨|
5
⑦⑦⑥⑥ |--①②|
口口口口 |-③--|
③②①③ |④-⑤-|
⑤⑤④④ |⑥-⑦-|
6
⑨⑧⑦⑨ |①②-③|
③②①③ |--④⑤|
口口口口 |-⑥--|
⑥⑤④⑥ |⑦⑧-⑨|
7
口口口口 |--①②|
口口口口 |-③--|
③②①③
口口口口

⑨⑦⑧⑩
口口口④
口⑪口口 |④⑤⑥⑦|
口⑤口⑥ |⑧⑨⑩⑪|
8
⑨⑧⑦⑨ |①②-③|
③②①③ |--④⑤|
口口口口 |-⑥--|
⑥⑤④⑥ |⑦⑧-⑨|
9
口口口口 |--①②|
⑦⑤④⑥ |-③--|
③②①③ |④-⑤-|
⑤⑦⑥④ |⑥-⑦-|
10
①②③口 |①--②|
口④口口 |--③-|
①②③⑤ |--④-|
口⑥口口 |⑤-⑥-|
11
口口④口 |①-②③|
③⑥⑥口 |④⑤-⑥|
①⑤口口
口口②①

⑩口口口
口口口口
口口口⑧ |-⑦⑧-|
⑦口口⑨ |⑨-⑩-|
12
口②口口 |①--②|
②口口① |--③-|
口口①③
口口③口

口口口口
口④口口
口口⑤口 |--④-|
口⑥口口 |⑤-⑥-|
13
①⑥口④ |①-②③|
口口②① |④⑤⑥⑦|
③口⑦⑤
④口口口

⑫口⑮口
⑧⑩口⑬
口口口口 |⑧⑨⑩⑪|
口⑭⑨⑪ |⑫⑬⑭⑮|
14
④口口② |①--②|
口③①⑤ |--③-|
⑥①③口 |--④-|
②口口口 |⑤-⑥-|
15
口口④口 |①-②③|
③⑥⑥口 |④⑤-⑥|
口⑤口口
口①②①

⑩口口口
口口口口
口口口⑧ |-⑦⑧-|
⑦口口⑨ |⑨-⑩-|
16
口②③① |①--②|
①口口口 |--③-|
口口口口 |----|
④③②④ |④---|
17
③⑥⑥③ |①-②③|
①②②① |-④--|
③④④③ |⑤---|
口⑤⑤口 |⑥---|
18
⑤口口⑤ |①-②③|
①口口① |-④-⑤|
口③②口
④口口④

口⑨口口
口口⑥⑫
⑦口口⑧ |-⑥⑦⑧|
口⑪⑩口 |⑨⑩⑪⑫|
19
⑤口口⑤ |①-②③|
①口口口 |-④-⑤|
口③②口
④口口④

口口口口
⑥⑧口⑥
口口⑦口 |----|
口口口口 |⑥-⑦⑧|
20
口口①口 |①---|
口口口④ |②-③④|
③口口口
②口③②

口⑤口口
⑦⑪⑧口
口⑨⑩⑥ |⑤⑥⑦⑧|
口口口⑫ |⑨⑩⑪⑫|
21
②③④② |①--②|
口⑦⑥口 |--③-|
③口口④ |④---|
①⑤⑤口 |⑤-⑥⑦|
22
⑤口口⑤ |①-②③|
①口口① |-④-⑤|
口③②口
④口口④

口⑨口口
口口⑥⑫
⑦口口⑧ |-⑥⑦⑧|
口⑪⑩口 |⑨⑩⑪⑫|
23
③⑤口② |①-②③|
口①⑤口 |-④-⑤|
口口口口
④口口④

口口口口
⑥⑧口⑥
口口⑦口 |----|
口口口口 |⑥-⑦⑧|
24
口口①口 |①---|
口口口④ |②-③④|
③口口口
②口③②

口⑤口口
⑦⑪⑧口
口⑨⑩⑥ |⑤⑥⑦⑧|
口口口⑫ |⑨⑩⑪⑫|
25
②口⑦② |①--②|
⑥⑩口口 |--③-|
③口⑨④ |④-⑤⑥|
①⑧⑤口 |⑦⑧⑨⑩|
26
口②口⑤ |①②③④|
⑧口③口 |⑤⑥⑦⑧|
口④口口
⑥口⑦①

⑩口⑪口
口⑫口⑨
⑯⑮⑭⑬ |⑨⑩⑪⑫|
口口口口 |⑬⑭⑮⑯|
27
⑥②口⑤ |①②③④|
口口③口 |⑤⑥⑦⑧|
口口口口
⑧④⑦①

口口⑪口
⑯⑮⑭⑬
⑫⑩口⑨ |⑨⑩⑪⑫|
口口口口 |⑬⑭⑮⑯|
28
⑥②口⑤ |①②③④|
口口口口 |⑤⑥⑦⑧|
口口③口
⑧④⑦①

口口⑪口
⑫⑩口⑨
⑯⑮⑭⑬ |⑨⑩⑪⑫|
口口口口 |⑬⑭⑮⑯|
29
⑥②口⑤ |①②③④|
口口③口 |⑤⑥⑦⑧|
口口口口
⑧④⑦①

口口⑪口
⑯⑮⑭⑬
⑫⑩口⑨ |⑨⑩⑪⑫|
口口口口 |⑬⑭⑮⑯|
30
②⑥口⑤ |①②③④|
口口口口 |⑤⑥⑦⑧|
口口③口
⑧④⑦①

口口⑪口
⑫⑩口⑨
⑯⑮⑭⑬ |⑨⑩⑪⑫|
口口口口 |⑬⑭⑮⑯|
31
⑧②⑦⑤ |①②③④|
⑯⑮⑭⑬ |⑤⑥⑦⑧|
⑫⑩⑪⑨ |⑨⑩⑪⑫|
④⑥③① |⑬⑭⑮⑯|
32
⑥②⑦③ |①②③④|
⑫⑩⑪⑨ |⑤⑥⑦⑧|
⑯⑮⑭⑬ |⑨⑩⑪⑫|
⑧④⑤① |⑬⑭⑮⑯|
33
③⑥⑤② |①-②③|
⑦⑧⑨③ |-④⑤-|
口⑩⑪口 |⑥-⑦-⑧-|
⑤⑥①④ |⑨-⑩-⑪-|
34
④⑤⑤④ |①---|
③⑦⑦口 |②-③-|
口口口① |④-⑤-|
口口⑥② |⑥-⑦-|
35
口口口口 |①-②-|
⑥⑦⑦⑥ |③-④⑤|
①⑤④① |⑥---|
②⑥⑥③ |⑦---|
36
①①①① |①---|
③口口④ |②-③-|
口口⑤口 |④---|
口⑥②口 |⑤-⑥-|
37
①①①① |①-②-|
⑧③③⑧ |③-④⑤|
②⑥⑥口 |⑥---|
⑤⑦⑦④ |⑦-⑧-|
38
①口⑥① |①---|
口③②口 |②-③-|
⑤口⑦口 |④-⑤-|
口④④口 |⑥-⑦-|
39
①口口① |①-②-|
口②③口 |③-④⑤|
⑥⑦⑦⑥ |⑥---|
口⑤④口 |⑦---|
40
③口口④ |①---|
⑥①①口 |②-③-|
③口⑤④ |④---|
⑥口②口 |⑤-⑥-|
41
口④口口 |①②③④|
口⑧③① |⑤⑥⑦⑧|
⑥②口⑤
口口⑦①

口口口⑨
⑪口⑭⑫
口口⑩口 |⑨-⑩⑪|
⑬⑮口口 |⑫⑬⑭⑮|
42
①口口口 |①--②|
口②口口 |--③-|
口口口口
口口③口

口口口口
口⑥口口
④口⑤④ |④---|
口口口口 |⑤-⑥-|
43
⑤③①口 |①-②③|
③口口② |④⑤-⑥|
⑤⑥⑥④
口口④②

口口口⑧
口⑦⑧口
口口口口 |-⑦⑧-|
⑨⑦口⑩ |⑨-⑩-|
44
④①①④ |①--②|
⑥③③口 |--③-|
口②②⑤ |④---|
口口口口 |⑤-⑥-|
45
口⑤⑩⑭ |①-②③|
⑬⑨⑧① |④⑤⑥⑦|
③⑦④⑫ |⑧⑨⑩⑪|
⑮⑪②⑥ |⑫⑬⑭⑮|
46
①口口口 |①--②|
口⑥口口 |--③-|
④②⑤④ |④---|
口口口③ |⑤-⑥-|
47
⑤③①口 |①-②③|
③口口② |④⑤-⑥|
⑤⑥⑥④
口口④②

口口口⑧
口⑦⑧口
口口口口 |-⑦⑧-|
⑨⑦口⑩ |⑨-⑩-|
48
口①①口 |①--②|
③口口③ |--③-|
②⑤口② |----|
口④口口 |④-⑤-|
49
口④口① |①②③④|
口②⑤③ |⑤⑥⑦⑧|
⑥口口⑦
口⑧口口

⑨口⑨口
口⑩口口
口口⑩口 |⑨---|
口口口口 |⑩---|
50
口口口口 |①-②③|
①口口① |-④⑤-|
口②口③
①④⑤①

口口⑩⑥
⑧⑪⑦口
口⑨口口 |⑥-⑦⑧|
口口口口 |-⑨⑩⑪|
51
口②口口 |①-②-|
口口④③ |---③④⑤|
⑤口①③
口口口②

⑨口口⑨
口⑦口口
口⑥⑨口 |⑥-⑦⑧|
口⑧⑧口 |--⑨-|
52
口⑥口口 |--①②|
②口③口 |③④⑤⑥|
口④口⑤
口口口①

口口⑪口
⑭⑫口⑨
⑧口口口 |⑦⑧⑨⑩|
口⑩⑦⑬ |⑪⑫⑬⑭|
53
④⑥口③ |①②③④|
⑪口⑦⑨ |⑤⑥⑦⑧|
口②①⑤ |⑨-⑩-|
⑩⑧⑪⑩ |--⑪-|
54
⑧口③口 |①②③④|
口②⑦口 |⑤⑥⑦⑧|
⑥口⑤①
口④口口

口⑬口口
⑫⑮口⑪
口⑩口⑭ |⑨⑩⑪⑫|
口口⑬⑨ |-⑬⑭⑮|
55
口口①口 |①②③④|
⑧口③⑦ |⑤⑥⑦⑧|
②⑥口口
口④口⑤

口⑮口⑨
口⑫⑯口
口口⑪⑬ |⑨⑩⑪⑫⑬|
⑩⑰⑭口 |⑭⑮⑯⑰-|
56
②口口② |①--②|
③口口口 |--③-|
①口口③
口口口①

口⑥口口
口④口⑤
⑥口口口 |--④-|
④口⑤口 |⑤-⑥-|
57
⑧口⑦① |①②③④|
④口④口 |⑤⑥⑦⑧|
口②①③
口⑥口⑤

口⑩口⑩
口口口口
口口口口 |⑨---|
⑨口⑨口 |⑩---|
58
③⑧⑦⑨ |①②-③|
口②①⑥ |--④⑤|
口口口③ |-⑥--|
⑥⑤④⑨ |⑦⑧-⑨|
59
口口口口 |--①②|
③口口口 |-③--|
口②①口
③口口口

口⑦口口
口⑨⑥④
⑤⑪⑩口 |④⑤⑥⑦|
口口⑧口 |⑧⑨⑩⑪|
60
④口③口 |①②③④|
⑦口⑥⑧ |⑤⑥⑦⑧|
口口口②
口①口⑤

口⑯⑮⑨
口口口口
⑩口⑫⑭ |⑨⑩⑪⑫|
⑬口⑪口 |⑬⑭⑮⑯|
61
口口口⑤ |①②③④|
口③②④ |⑤⑥⑦⑧|
口⑥⑧口
口口⑦①

口口口口
口口口口
⑩口口⑨ |⑨-⑩-|
⑫口口⑪ |⑪-⑫-|
62
④⑧口① |①②③④|
④②口③ |⑤⑥⑦⑧|
⑥口⑤口
口口⑦口

口口⑨⑮
⑯⑭⑪口
口⑩口⑬ |⑨⑩⑪⑫|
⑯⑫口⑩ |⑬⑭⑮⑯|
63
②④口口 |①②③④|
口口⑦① |⑤⑥⑦⑧|
口⑥⑤口
口⑧③⑥

⑭口⑪⑬
⑯⑫口⑮
⑩口口⑨ |⑨⑩⑪⑫|
口口口口 |⑬⑭⑮⑯|
64
口④⑨口 |①②③④⑤⑥|
口⑩⑦口 |⑦⑧⑨⑩⑪⑫|
⑧②③⑤
⑫⑥①⑪

⑭⑳口⑬
⑯口C⑮
D⑱⑲A |⑬⑭⑮⑯⑰⑱|
口B⑰口 |⑲⑳ABCD|
65
⑥⑫①⑤ |①②③④⑤⑥|
⑧②口⑦ |⑦⑧⑨⑩⑪⑫|
口⑩⑪口
④口⑨③

B口⑰A
D⑱⑮C
⑯口口⑬ |⑬⑭⑮⑯⑰⑱|
⑳⑭口⑲ |⑲⑳ABCD|
66
口③③口 |①--②|
口口口口 |--③-|
③②②③ |----|
口口①口 |----|

不确定度: 0

タグ:

+ タグ編集
  • タグ:

このサイトはreCAPTCHAによって保護されており、Googleの プライバシーポリシー利用規約 が適用されます。

最終更新:2013年10月12日 23:26