ふりぃ
阿部真央

EXTREME

Level: 7
BPM: 181
Notes: 531

1
口口口口 |----|
口口口口 |----|
口口口口 |----|
口口口口 |----|
2
①口口口 |①---|
②③口口 |--②-|
口④口口 |③---|
口口口口 |--④-|
3
口口口口 |①---|
口口口口 |--②-|
口口①口 |③---|
口口②③ |----|
4
①④口① |①---|
口口口口 |--②-|
口口口口 |③---|
口②③口 |--④-|
5
⑦⑦①① |①-②-|
②②⑥⑤ |③-④-|
口口③③ |⑤-⑥-|
④④口口 |--⑦-|
6
口口②① |--①-|
④③口口 |②-③-|
口口⑥⑤ |④-⑤-|
⑦口口口 |⑥-⑦-|
7
③④口口 |--①-|
口口⑤⑥ |②-③-|
⑦口口口 |④-⑤-|
口⑦①② |⑥-⑦-|
8
口口口口 |--①-|
口口口口 |----|
口口口① |----|
口口①口 |----|
9
口口口口 |----|
口口口口 |----|
口口口口 |----|
口口口口 |----|
10
①口口① |①---|
②③口④ |--②-|
口口口口 |③---|
口口口口 |--④-|
11
口口口口 |①---|
口口①口 |--②-|
口口口口 |③---|
③②②③ |----|
12
口④口口 |①---|
①口②③ |--②-|
口口口口 |③---|
口口口口 |--④-|
13
④④①口 |①---|
口口③② |----|
口口口口 |②-③-|
口口口口 |--④-|
14
口口②① |--①-|
④③口口 |②-③-|
口口⑥⑤ |④-⑤-|
⑦口口口 |⑥-⑦-|
15
③④口口 |--①-|
口口⑤⑥ |②-③-|
⑦口口口 |④-⑤-|
口⑦①② |⑥-⑦-|
16
口口口口 |--①-|
口口口口 |----|
口口口① |----|
口口①口 |----|
17
口口口口 |----|
口口口口 |----|
口口口口 |----|
口口口口 |----|
18
①①②② |①-②-|
⑥⑥⑥⑥ |③-④-|
⑤⑤⑤⑤ |⑤---|
③③④④ |⑥---|
19
①②②① |----|
口口口口 |--①-|
口④④口 |②---|
口③③口 |③-④-|
20
口口口口 |--①-|
①口口① |----|
口口口口 |----|
口口口口 |----|
21
口口④④ |----|
③③口口 |----|
口口②② |①-②-|
①①口口 |③-④-|
22
口口口口 |--①-|
口口口① |----|
①口口口 |----|
②口口② |②---|
23
口口口口 |----|
口口口口 |----|
口口口口 |----|
口①①口 |①---|
24
③口口③ |①---|
②口口② |--②-|
口①①口 |----|
口口口口 |③---|
25
口①①口 |----|
口③③口 |①---|
③②②③ |②---|
②口口② |③---|
26
口口口口 |①---|
口口口口 |----|
口口口口 |----|
口①①口 |----|
27
口口口口 |①---|
②口口② |----|
①口口① |②---|
口口口口 |----|
28
①①①① |①---|
口口口口 |----|
口口口口 |----|
口口口口 |----|
29
口口口口 |----|
口②②口 |----|
口①①口 |①---|
口口口口 |②---|
30
口①①口 |①---|
口口口口 |----|
口口口口 |----|
口口口口 |----|
31
①口口② |①---|
③①②④ |②---|
口③④口 |③---|
口口口口 |④---|
32
口口口口 |①---|
口口口口 |----|
口口口口 |----|
口①①口 |----|
33
①③①③ |①-②-|
④②④② |--③-|
口⑤⑤口 |④---|
口⑤⑤口 |⑤---|
34
口口口口 |①---|
口口口口 |----|
口口口口 |----|
①口口① |----|
35
口口口口 |①---|
②④④② |②---|
①③③① |③---|
口口口口 |④---|
36
口①①口 |①---|
口口口口 |----|
口口口口 |----|
口口口口 |----|
37
①口口① |----|
口口口口 |①---|
口口口口 |----|
口②②口 |②---|
38
口口口口 |①---|
口口口口 |----|
口①①口 |----|
口口口口 |----|
39
①口口② |①---|
③①②④ |②---|
口③④口 |③---|
口口口口 |④---|
40
口口口口 |①---|
口口口口 |----|
口口口口 |----|
①①①① |----|
41
口①①口 |①---|
④④④④ |②---|
③③③③ |③---|
②②②② |④---|
42
①口口② |①---|
口③口口 |--②-|
口口④口 |--③-|
口⑤口口 |④-⑤-|
43
口②①口 |①-②-|
⑤口口⑤ |--③-|
④口口④ |--④-|
③口口③ |--⑤-|
44
口口口口 |----|
口口口口 |----|
口口口口 |----|
口口口口 |----|
45
口①①口 |----|
口②②口 |----|
口口口口 |①---|
口口口口 |②---|
46
口口口口 |①---|
口口口口 |----|
口①①口 |----|
②口口口 |--②-|
47
口口口口 |①---|
口口口口 |--②-|
①口口③ |③---|
口④④② |--④-|
48
口口口口 |①-②-|
①③⑤⑦ |③-④-|
②④⑥⑧ |⑤-⑥-|
口口口口 |⑦-⑧-|
49
①①②② |①-②-|
口⑥⑥口 |③-④-|
口⑤⑤口 |⑤---|
③③④④ |⑥---|
50
①①②② |①-②-|
口⑥⑥口 |③-④-|
口⑤⑤口 |⑤---|
③③④④ |⑥---|
51
①①②② |①-②-|
⑥⑥⑥⑥ |--③-|
⑤⑤⑤⑤ |④---|
③③④④ |⑤-⑥-|
52
口口口口 |----|
口口口口 |----|
口口口口 |----|
口口口口 |----|
53
①口口① |①---|
②③口④ |--②-|
口口口口 |③---|
口口口口 |--④-|
54
口口口口 |①---|
口口①口 |--②-|
口口口口 |③---|
③②②③ |----|
55
口③口口 |①---|
口口②② |----|
①①口口 |②---|
口口口口 |--③-|
56
⑦⑦①① |①-②-|
②②⑥⑤ |③-④-|
口口③③ |⑤-⑥-|
④④口口 |--⑦-|
57
口口②① |--①-|
④③口口 |②-③-|
口口⑥⑤ |④-⑤-|
⑦口口口 |⑥-⑦-|
58
③④口口 |--①-|
口口⑤⑥ |②-③-|
⑦口口口 |④-⑤-|
口口①② |⑥-⑦-|
59
口口口口 |--①-|
口口口口 |----|
口口口① |----|
口口口口 |----|
60
口口口口 |----|
口口口口 |----|
口口口口 |----|
口口口口 |----|
61
①口口① |①---|
②③口④ |--②-|
口口口口 |③---|
口口口口 |--④-|
62
口口口口 |①---|
口口①口 |--②-|
口口口口 |③---|
③②②③ |----|
63
①口口① |①---|
口②③口 |--②-|
口口口口 |③---|
口④口口 |--④-|
64
④④④④ |①---|
③③③③ |②---|
②②②② |③---|
口口①口 |④---|
65
口⑥⑥口 |①---|
④口口⑤ |②-③-|
②口口③ |④-⑤-|
口①①口 |--⑥-|
66
口口口口 |----|
口①②口 |----|
口口口口 |①-②-|
③③③③ |--③-|
67
①①①① |--①-|
②口口② |----|
②口口② |----|
口口口口 |--②-|
68
口⑥⑦口 |--①-|
口④⑤口 |②-③-|
口②③口 |④-⑤-|
口口①口 |⑥-⑦-|
69
①口口② |①-②-|
口口口口 |③-④-|
口⑥⑦口 |⑤---|
③⑤⑤④ |⑥-⑦-|
70
②口口② |--①-|
①③④① |----|
口口口口 |②---|
口口口口 |③-④-|
71
口口口口 |--①-|
口口口口 |②---|
②口口② |----|
①口口① |----|
72
口口口口 |----|
口①②口 |--①-|
口③④口 |②-③-|
⑤口口⑤ |④-⑤-|
73
口口口口 |--①-|
②②②② |----|
①口口① |----|
口①①口 |②---|
74
①口口口 |----|
①口口口 |----|
口口口口 |----|
口口口口 |①---|
75
口①②口 |①---|
口①口③ |--②-|
口口②口 |----|
口口口③ |③---|
76
④④④④ |①---|
口②①口 |②---|
③③③③ |③---|
口②①口 |④---|
77
口口口口 |①---|
①口口① |----|
口口口口 |----|
口口口口 |----|
78
口口口口 |①---|
②口口② |----|
①口口① |②---|
口口口口 |----|
79
①①①① |①---|
口口口口 |----|
口口口口 |----|
口口口口 |----|
80
口口口口 |----|
口②②口 |----|
口①①口 |①---|
口口口口 |②---|
81
口①①口 |①---|
口口口口 |----|
口口口口 |----|
口口口口 |----|
82
①口①口 |①---|
口②口② |②---|
③口③口 |③---|
口④口④ |④---|
83
口口口口 |①---|
①口①口 |----|
口①口① |----|
口口口口 |----|
84
①③②④ |①-②-|
口⑤⑤口 |--③-|
②④①③ |④---|
口⑤⑤口 |⑤---|
85
口口口口 |①---|
口口口口 |----|
口口口口 |----|
①口口① |----|
86
①口口① |①---|
②④④② |②---|
口③③口 |③---|
口口口口 |④---|
87
口①①口 |①---|
口口口口 |----|
口口口口 |----|
口口口口 |----|
88
口口口口 |----|
口②②口 |----|
②①①② |①---|
①口口① |②---|
89
口①①口 |①---|
①口口① |----|
口口口口 |----|
口口口口 |----|
90
①口口② |①---|
③①②④ |②---|
口③④口 |③---|
口口口口 |④---|
91
口口口口 |①---|
口②③口 |--②-|
口口口口 |③---|
④①①④ |④---|
92
⑤⑤⑤⑤ |①---|
④④④④ |②-③-|
①③③① |--④-|
口②②口 |⑤---|


不确定度: 0

最終更新:2012年11月23日 01:56