Fantasista
Dragon Ash

BASIC

Level: 3
BPM: 190
Notes: 191

1
口口口口 |----|
口口口口 |----|
口口口口 |----|
口口口口 |----|
2
口口口口 |①---|
口①口口 |----|
口口口口 |----|
口口口口 |----|
3
口口口口 |----|
口口口口 |----|
口口口口 |----|
口口口口 |----|
4
口口口口 |①---|
口口①口 |----|
口口口口 |----|
口口口口 |----|
5
口口口口 |----|
口口口口 |----|
口口口口 |----|
口口口口 |----|
6
口口口口 |①---|
口口口口 |----|
口①口口 |----|
口口口口 |----|
7
口口口口 |----|
口口口口 |----|
口口口口 |----|
口口口口 |----|
8
口口口口 |①---|
口口口口 |----|
口口①口 |----|
口口口口 |----|
9
口口口口 |----|
口口口口 |----|
口口口口 |----|
口口口口 |----|
10
口口口口 |①---|
①口口口 |----|
口口口口 |----|
口口口口 |----|
11
口口口口 |①---|
口口口① |----|
口口口口 |----|
口口口口 |----|
12
口口口口 |①---|
口口口口 |----|
口①②口 |②---|
口口口口 |----|
13
口口口口 |①---|
口口口口 |②---|
口口口口 |③---|
口③②① |----|
14
口口口口 |①---|
①口口口 |----|
口口口口 |----|
口口口口 |----|
15
口口口口 |①---|
口口口① |----|
口口口口 |----|
口口口口 |----|
16
口①②口 |①---|
口口口口 |----|
口口口口 |②---|
口口口口 |----|
17
口口口口 |①---|
口口口口 |----|
口①①口 |----|
口口口口 |----|
18
口口口口 |①---|
①口口口 |----|
口口口口 |----|
口口口口 |----|
19
口口口口 |①---|
口口口① |----|
口口口口 |----|
口口口口 |----|
20
口口口口 |①---|
口口口口 |----|
口①②口 |②---|
口口口口 |----|
21
口口口口 |①---|
口③②① |②---|
口口口口 |③---|
口口口口 |----|
22
①口口口 |①---|
口口口口 |----|
口口口口 |----|
口口口口 |----|
23
口口口① |①---|
口口口口 |----|
口口口口 |----|
口口口口 |----|
24
口口口口 |①---|
①口口口 |----|
口口口口 |----|
口口口口 |----|
25
口口口口 |①---|
口口口① |----|
口②③口 |②---|
口口口口 |③---|
26
口①②口 |①---|
口口口口 |----|
口口口口 |②---|
口口口口 |----|
27
口口口口 |①---|
口①②口 |----|
口口口口 |②---|
口口口口 |----|
28
口口口口 |①---|
口口口口 |----|
口①①口 |----|
口口口口 |----|
29
口口口口 |----|
口口口口 |----|
口口口口 |----|
口口口口 |----|
30
口①②口 |①---|
口口口口 |----|
口口口口 |②---|
口口口口 |----|
31
口口口口 |①---|
口①②口 |----|
口口口口 |②---|
口口口口 |----|
32
口口口口 |①---|
口口口口 |----|
口①①口 |----|
口口口口 |----|
33
口口口口 |----|
口口口口 |----|
口口口口 |----|
口口口口 |----|
34
②①口口 |①---|
口口口口 |--②-|
口口口口 |----|
口口口口 |----|
35
口口①② |①---|
口口口口 |--②-|
口口口口 |----|
口口口口 |----|
36
口口口口 |①---|
②①口口 |--②-|
口口口口 |----|
口口口口 |----|
37
口口口口 |①---|
口口①② |--②-|
口口口口 |----|
口口口口 |----|
38
口口口口 |①---|
口口口口 |--②-|
②①口口 |----|
口口口口 |----|
39
口口口口 |①---|
口口口口 |--②-|
口口①② |----|
口口口口 |----|
40
口口口口 |①---|
口口口口 |--②-|
口口口口 |----|
②①口口 |----|
41
口口口口 |①---|
口口口口 |--②-|
口口口口 |----|
口口①② |----|
42
口①②口 |①---|
口口口口 |----|
口口口口 |②---|
口口口口 |----|
43
口口口口 |①---|
口①②口 |----|
口口口口 |②---|
口口口口 |----|
44
口口口口 |①---|
口口口口 |----|
口①②口 |②---|
口口口口 |----|
45
口口口口 |①---|
口口口口 |----|
口口口口 |②---|
口①②口 |----|
46
①②口口 |①---|
口口口口 |----|
口口口口 |②---|
口口口口 |----|
47
口口①② |①---|
口口口口 |----|
口口口口 |②---|
口口口口 |----|
48
口口口口 |①---|
口口②① |----|
口口口口 |②---|
口口口口 |----|
49
口口口口 |①---|
口①口口 |----|
口口口口 |----|
口口口口 |----|
50
口口口口 |①---|
口口口口 |----|
①②口口 |②---|
口口口口 |----|
51
口口口口 |①---|
口口口口 |----|
口口①② |②---|
口口口口 |----|
52
口口口口 |①---|
口口口口 |----|
口口口口 |②---|
口口②① |----|
53
口口口口 |①---|
口口口口 |----|
口口口口 |②---|
②①口口 |----|
54
口①②口 |①---|
口口口口 |----|
口口口口 |②---|
口口口口 |----|
55
口口口口 |①---|
口①②口 |----|
口口口口 |②---|
口口口口 |----|
56
口口口口 |①---|
口口口口 |----|
①口口② |②---|
口口口口 |----|
57
口④④口 |①---|
口③③口 |②---|
口②②口 |③---|
口①①口 |④---|
58
①口口口 |①---|
口口口口 |----|
口口口口 |----|
口口口口 |----|
59
口口口① |①---|
口口口口 |----|
口口口口 |----|
口口口口 |----|
60
口口口口 |①---|
口①①口 |----|
口口口口 |----|
口口口口 |----|
61
①口口② |①---|
口口口口 |----|
口口口口 |②---|
口口口口 |----|
62
口①②口 |①---|
口③④口 |②---|
口口口口 |③---|
口口口口 |④---|
63
口口口口 |①---|
口口口口 |②---|
口①②口 |③---|
口③④口 |④---|
64
②口口② |①---|
口①①口 |----|
口口口口 |②---|
口口口口 |----|
65
口①①口 |①---|
口②②口 |②---|
口③③口 |③---|
口④④口 |④---|
66
①口口口 |①---|
口口口口 |----|
口口口口 |----|
口口口口 |----|
67
口口口① |①---|
口口口口 |----|
口口口口 |----|
口口口口 |----|
68
口口口口 |①---|
口①①口 |----|
口口口口 |----|
口口口口 |----|
69
①口口② |①---|
口口口口 |----|
口口口口 |②---|
口口口口 |----|
70
口①②口 |①---|
口③④口 |②---|
口口口口 |③---|
口口口口 |④---|
71
口口口口 |①---|
口口口口 |②---|
口①②口 |③---|
口③④口 |④---|
72
②口口② |①---|
口①①口 |----|
口口口口 |②---|
口口口口 |----|
73
口①①口 |①---|
口②②口 |②---|
口③③口 |③---|
口④④口 |④---|
74
①口口① |①---|
口口口口 |----|
口口口口 |----|
口口口口 |----|
75
口①①口 |①---|
口②②口 |②---|
口③③口 |③---|
口④④口 |④---|
76
①口口① |①---|
口口口口 |----|
口口口口 |----|
口口口口 |----|
77
口①①口 |①---|
口②②口 |②---|
口③③口 |③---|
口④④口 |④---|
78
①口口① |①---|
口口口口 |----|
口口口口 |----|
口口口口 |----|
79
口①①口 |①---|
口②②口 |②---|
口③③口 |③---|
口④④口 |④---|
80
①口口① |①---|
口口口口 |----|
口口口口 |----|
口口口口 |----|
81
口①①口 |①---|
口②②口 |②---|
口③③口 |③---|
口④④口 |④---|
82
①①①① |①---|
口口口口 |----|
口口口口 |----|
口口口口 |----|


不确定度: 0

最終更新:2012年11月23日 01:56