Fantasista
Dragon Ash

ADVANCED

Level: 5
BPM: 190
Notes: 388

1
口口口口 |----|
口口口口 |----|
口口口口 |----|
口口口口 |----|
2
口②口口 |①---|
口口口口 |--②-|
①口③口 |----|
口口口口 |③---|
3
口口口口 |----|
口①口口 |----|
口口口口 |①---|
口口口口 |----|
4
口口口口 |①---|
①口②口 |----|
口口口口 |----|
口口口口 |--②-|
5
口口口口 |----|
口口口口 |----|
口口口口 |----|
口口口口 |----|
6
口口口口 |①---|
口①口② |--②-|
口口口口 |----|
口口③口 |③---|
7
口口口口 |----|
口口口口 |----|
口口①口 |①---|
口口口口 |----|
8
口口口口 |①---|
口口口口 |----|
口②口① |----|
口口口口 |--②-|
9
口口口口 |----|
口①口口 |----|
口口口口 |----|
口口口口 |①---|
10
②口③口 |①---|
口口口口 |②---|
口④①口 |③---|
口口口口 |④---|
11
口口口口 |①---|
口①口② |②---|
口口口口 |③---|
口口③口 |----|
12
①口口② |①---|
口口口口 |----|
口口口口 |②---|
口③③口 |--③-|
13
口②②口 |----|
口①①口 |①---|
口口口口 |②---|
口口口口 |----|
14
口口口口 |①---|
口口口口 |----|
①①②② |②---|
口口口口 |----|
15
口口口口 |①--②|
口④③口 |--③-|
口②口口 |④---|
口口①口 |----|
16
口口口口 |①---|
口④④口 |②---|
②③③② |③---|
①口口① |④---|
17
②①①③ |①---|
②口口③ |----|
口口口口 |②---|
口口口口 |③---|
18
口口口口 |①---|
口③口口 |②---|
口口④口 |③---|
②口①口 |④---|
19
口②口① |①---|
口口③口 |②---|
口③口口 |③---|
口口口口 |----|
20
①口口② |①---|
口口口口 |----|
口口口口 |②---|
口口口口 |----|
21
口③③口 |①---|
口②②口 |②---|
口①①口 |③---|
口口口口 |----|
22
口口口口 |①---|
口口口口 |----|
①①②② |②---|
口口口口 |----|
23
口口口口 |①--②|
口④③口 |--③-|
口②口口 |④---|
口口①口 |----|
24
④口口⑤ |①---|
口③③口 |②---|
口②②口 |③-④-|
口①①口 |-⑤--|
25
口口口口 |①-②-|
口⑤⑤口 |--③-|
①②④③ |④---|
口口口口 |⑤---|
26
②口口② |①---|
口口口口 |----|
口口口口 |②---|
①口③① |③---|
27
口口口④ |①---|
口②口口 |②---|
口口③口 |③---|
①口口口 |④---|
28
口①口口 |①---|
口口②口 |----|
口②口口 |②---|
口口口口 |----|
29
口口口口 |----|
口口口口 |----|
口口口口 |----|
口口口口 |----|
30
②口口② |①---|
口口口口 |----|
口口口口 |②---|
①口③① |③---|
31
口口口④ |①---|
口②口口 |②---|
口口③口 |③---|
①口口口 |④---|
32
口①口口 |①---|
口口②口 |----|
口②口口 |②---|
口口口口 |----|
33
口口口口 |----|
口口口口 |----|
口口口口 |----|
口口口口 |----|
34
②②口口 |①---|
口口口口 |--②-|
口口口口 |----|
①①口口 |----|
35
口口②② |①---|
口口口口 |--②-|
口口口口 |----|
口口①① |----|
36
②②口口 |①---|
口口口口 |--②-|
口口口口 |----|
①①口口 |----|
37
口口②② |①---|
口口口口 |--②-|
口口口口 |----|
口口①① |----|
38
②②口口 |①---|
口口口口 |--②-|
口口口口 |----|
①①口口 |----|
39
口口②② |①---|
口口口口 |--②-|
口口口口 |----|
口口①① |----|
40
口②②口 |①---|
口口口口 |--②-|
口口口口 |----|
口①①口 |----|
41
②口口② |①---|
口口口口 |--②-|
口③③口 |----|
①口口① |③---|
42
④①①④ |①---|
③口口③ |②---|
②口口② |③---|
口口口口 |④---|
43
口④④口 |①---|
口③③口 |②---|
口②②口 |③---|
口①①口 |④---|
44
口口口口 |--①-|
③口口③ |----|
②口口② |②---|
口①①口 |③---|
45
口①①口 |①---|
口口口口 |②---|
口②②口 |③---|
口③③口 |----|
46
口①①口 |--①-|
②口口② |----|
口口口口 |②---|
口口口口 |----|
47
口④④口 |①---|
口③③口 |②---|
口②②口 |③---|
口①①口 |④---|
48
口口口口 |--①-|
③口口③ |----|
②口口② |②---|
①口口① |--③-|
49
口口口口 |----|
口口口口 |----|
口①①口 |----|
口口口口 |①---|
50
口①①口 |①---|
③口口③ |②---|
②口口② |③---|
口口口口 |----|
51
口④④口 |①---|
口③③口 |②---|
口②②口 |③---|
口①①口 |④---|
52
口口口口 |--①-|
③口口③ |----|
②口口② |②---|
口①①口 |③---|
53
口①①口 |①---|
口口口口 |②---|
口②②口 |③---|
口③③口 |----|
54
口①①口 |--①-|
②口口② |----|
口口口口 |②---|
口口口口 |----|
55
口④④口 |①---|
口③③口 |②---|
口②②口 |③---|
口①①口 |④---|
56
口口口口 |--①-|
口口口口 |----|
②口口② |②---|
①口口① |----|
57
口①①口 |①---|
口②②口 |②---|
口③③口 |③---|
口④④口 |④---|
58
①①①① |①---|
口口口口 |----|
口口口口 |----|
口口口口 |----|
59
口口口口 |①---|
口口口口 |----|
口口口口 |----|
①①①① |----|
60
口②②口 |①---|
①①①① |----|
口口口口 |----|
口口口口 |②---|
61
口口口口 |①---|
口①②口 |②---|
口③④口 |③---|
口口口口 |④---|
62
③口口④ |①---|
口口口口 |②---|
口口口口 |③---|
①口口② |④---|
63
口④④口 |①---|
口③③口 |②---|
口②②口 |③---|
口①①口 |④---|
64
口口口口 |①---|
①口口① |----|
①口口① |②---|
②口口② |----|
65
口④④口 |①---|
口③③口 |②---|
口②②口 |③---|
口①①口 |④---|
66
口口口口 |①---|
口口口口 |----|
口口口口 |----|
①①①① |----|
67
①①①① |①---|
口口口口 |----|
口口口口 |----|
口口口口 |----|
68
口②②口 |①---|
口口口口 |----|
①①①① |----|
口口口口 |②---|
69
口口口口 |①---|
口①②口 |②---|
口③④口 |③---|
口口口口 |④---|
70
③口口④ |①---|
口口口口 |②---|
口口口口 |③---|
①口口② |④---|
71
口④④口 |①---|
口③③口 |②---|
口②②口 |③---|
口①①口 |④---|
72
口口口口 |①---|
①口口① |----|
①口口① |②---|
②口口② |----|
73
口④④口 |①---|
口③③口 |②---|
口②②口 |③---|
口①①口 |④---|
74
①口口② |①---|
①口口口 |②---|
口口口口 |③---|
③口口④ |④---|
75
口④④口 |①---|
口③③口 |②---|
口②②口 |③---|
口①①口 |④---|
76
①口口② |①---|
①口口口 |②---|
口口口口 |③---|
③口口④ |④---|
77
口④④口 |①---|
口③③口 |②---|
口②②口 |③---|
口①①口 |④---|
78
①口口② |①---|
①口口口 |②---|
口口口口 |③---|
③口口④ |④---|
79
口④④口 |①---|
口③③口 |②---|
口②②口 |③---|
口①①口 |④---|
80
①口口② |①---|
①口口口 |②---|
口口口口 |③---|
③口口④ |④---|
81
口④④口 |①---|
口③③口 |②---|
口②②口 |③---|
口①①口 |④---|
82
口口口口 |①---|
①口口① |----|
①口口① |----|
口口口口 |----|


不确定度: 0

最終更新:2012年11月23日 01:55