Fantasista
Dragon Ash

EXTREME

Level: 7
BPM: 190
Notes: 613

1
口口口口 |----|
口口口口 |----|
口口口口 |----|
口口口口 |----|
2
口口②口 |①---|
①口口口 |--②-|
口口口③ |----|
口口口口 |③---|
3
口口口口 |----|
口①口口 |----|
口②口口 |①-②-|
口③口口 |③---|
4
①口⑤口 |①---|
口口口② |②-③-|
口口口③ |--④-|
口④口口 |--⑤-|
5
口②口口 |----|
口口口口 |--①-|
口口口口 |--②-|
口口①口 |----|
6
口口口口 |①---|
③口口口 |--②-|
口口口① |----|
口②口口 |③---|
7
口口①口 |----|
口口②口 |----|
口口③口 |①-②-|
口口口口 |③---|
8
①口⑤口 |①---|
口口口② |②-③-|
口口口③ |--④-|
口④口口 |--⑤-|
9
口③口口 |----|
口④口口 |①-②-|
口口⑤① |--③-|
口口②口 |④-⑤-|
10
②口口③ |①---|
④口口⑤ |②-③-|
口⑥⑥口 |④-⑤-|
口①口口 |⑥---|
11
口①②口 |①-②-|
口③④口 |③-④-|
⑤口口⑤ |⑤---|
口⑥⑥口 |⑥---|
12
口③⑥⑥ |①--②|
口②⑤口 |--③-|
口①④口 |④--⑤|
口口口口 |--⑥-|
13
口⑥口口 |--①-|
①口口② |②-③-|
③口口④ |④---|
口⑤⑤口 |⑤-⑥-|
14
口口①口 |①-②-|
口②③口 |③-④-|
口④口口
口口口口

口⑥⑦口
口口口口
口口⑤口 |⑤---|
口口口口 |⑥-⑦-|
15
⑥口口口 |①--②|
③口口③ |--③-|
②④④② |④---|
①⑤⑤① |⑤-⑥-|
16
口①②口 |①-②-|
口口③④ |③-④-|
口⑥⑥口 |⑤---|
⑤口口⑤ |⑥---|
17
①口口① |①---|
口③③口 |----|
口口口口 |②---|
口②②口 |③---|
18
口①①口 |①---|
⑤口口② |②-③-|
口⑥③口 |④---|
口口口④ |⑤-⑥-|
19
口⑤⑤口 |①-②-|
口③④口 |③-④-|
②口口口 |⑤---|
①⑥⑥口 |⑥---|
20
口⑤⑤口 |①-②-|
⑥③④⑥ |③-④-|
口①②口 |⑤---|
口口口口 |⑥---|
21
口⑤⑤口 |①-②-|
口口口口 |③-④-|
③口口④ |⑤---|
①⑥⑥② |⑥---|
22
①口口② |①-②-|
③口口④ |③-④-|
口⑤⑤口 |⑤---|
口⑥⑦口 |⑥-⑦-|
23
口①①口 |①--②|
口②②口 |--③-|
③口口③ |④---|
④⑤⑤④ |⑤---|
24
口①②口 |①-②-|
⑦③④⑦ |③-④-|
口⑤⑥口 |⑤-⑥-|
口口口口 |-⑦--|
25
③④②① |①-②-|
口⑤⑤口 |--③-|
口口口口 |④---|
口口口口 |⑤---|
26
口②②口 |①---|
④口口④ |----|
③口口③ |②---|
口①①口 |③-④-|
27
④口口④ |①---|
口①②口 |②---|
口①②口 |③---|
③口口③ |④---|
28
口③③口 |①---|
口②②口 |②-③-|
口口口口
口①①口

口口口口
④口口⑤
口口口口 |④-⑤-|
口⑥⑥口 |--⑥-|
29
口口口口 |--①-|
③口口③ |②---|
④①②④ |③-④-|
⑤口口⑤ |⑤---|
30
口②②口 |①---|
④口口④ |----|
③口口③ |②---|
口①①口 |③-④-|
31
④口口④ |①---|
口①②口 |②---|
口①②口 |③---|
③口口③ |④---|
32
口③③口 |①---|
口②②口 |②-③-|
口口口口
口①①口

口口口口
④口口⑤
口口口口 |④-⑤-|
口⑥⑥口 |--⑥-|
33
口口口口 |--①-|
③口口③ |②---|
④①②④ |③-④-|
⑤口口⑤ |⑤---|
34
①口②③ |①-②-|
④口⑤⑥ |③-④-|
口⑦⑧口 |⑤-⑥-|
口⑨⑩口 |⑦⑧⑨⑩|
35
①口②③ |①-②-|
④口⑤⑥ |③-④-|
口⑦⑧口 |⑤-⑥-|
口⑨⑩口 |⑦⑧⑨⑩|
36
①口②③ |①-②-|
④口⑤⑥ |③-④-|
口⑦⑧口 |⑤-⑥-|
口⑨⑩口 |⑦⑧⑨⑩|
37
①口②③ |①-②-|
④口⑤⑥ |③-④-|
口⑦⑧口 |⑤-⑥-|
口⑨⑩口 |⑦⑧⑨⑩|
38
①口②③ |①-②-|
④口⑤⑥ |③-④-|
口⑦⑧口 |⑤-⑥-|
口⑨⑩口 |⑦⑧⑨⑩|
39
①口②③ |①-②-|
④口⑤⑥ |③-④-|
口⑦⑧口 |⑤-⑥-|
口⑨⑩口 |⑦⑧⑨⑩|
40
①口②③ |①-②-|
④口⑤⑥ |③-④-|
口⑦⑧口 |⑤-⑥-|
口⑨⑩口 |⑦⑧⑨⑩|
41
①口②③ |①-②-|
④⑤⑤口 |③-④-|
口口口口 |----|
口口口口 |⑤---|
42
口①①口 |①---|
②口口口 |②-③-|
③口⑥口 |④---|
④口⑤口 |⑤-⑥-|
43
口④④口 |--①-|
口③③口 |②---|
口②口口 |③---|
口①口口 |④---|
44
③口口⑤ |--①-|
②口口④ |--②-|
口口口口 |③---|
口口口① |④-⑤-|
45
口口口口 |--①-|
口口口口 |②-③-|
①口口② |④---|
③口口④ |----|
46
①②③口 |--①-|
口口口口 |②-③-|
口口口口 |④-⑤-|
⑦⑥⑤④ |⑥-⑦-|
47
③口口③ |①---|
②④④② |②---|
①口口① |③---|
口口口口 |④---|
48
口②③口 |--①-|
①④⑤① |--②-|
口口口口 |③---|
口口口口 |④-⑤-|
49
口口口口 |--①-|
口②②口 |----|
口口口口 |----|
口①①口 |②---|
50
口①①口 |①---|
②口口口 |②-③-|
③口⑤⑤ |④---|
④口口口 |--⑤-|
51
口④④口 |--①-|
口③③口 |②---|
口②口口 |③---|
口①口口 |④---|
52
③口口⑤ |--①-|
②口口④ |--②-|
口口口口 |③---|
口口口① |④-⑤-|
53
口口口口 |--①-|
口口口口 |②-③-|
①口口② |④---|
③口口④ |----|
54
①②③口 |--①-|
口口口口 |②-③-|
口口口口 |④-⑤-|
⑦⑥⑤④ |⑥-⑦-|
55
①口口① |①---|
②口口② |②---|
③口口③ |③---|
④口口④ |④---|
56
口①①口 |--①-|
口口口口 |--②-|
口②③口 |③-④-|
口④⑤口 |⑤---|
57
口①①口 |①---|
口②②口 |②---|
口③③口 |③---|
口④④口 |④---|
58
①①①① |①---|
口口口口 |----|
口口口口 |----|
口口口口 |----|
59
口口口口 |①---|
口口口口 |----|
口口口口 |----|
①①①① |----|
60
②②口口 |①---|
①①①① |----|
①①①① |----|
口口口口 |②---|
61
口口①① |①---|
②口口③ |②---|
②口口③ |③---|
口④④口 |④---|
62
①①②② |①---|
③③④④ |②---|
口口口口 |③---|
口口口口 |④---|
63
口口口口 |①---|
口口口口 |②---|
③②②④ |③---|
③①①④ |④---|
64
口①①口 |①---|
口口口口 |----|
口②②口 |②---|
口②②口 |----|
65
口口口口 |①---|
①④④① |②---|
②④④② |③---|
③口口③ |④---|
66
①①①① |①---|
口口口口 |----|
口口口口 |----|
口口口口 |----|
67
口口口口 |①---|
口口口口 |----|
口口口口 |----|
①①①① |----|
68
②②口口 |①---|
①①①① |----|
①①①① |----|
口口口口 |②---|
69
口口①① |①---|
②口口③ |②---|
②口口③ |③---|
口④④口 |④---|
70
①①②② |①---|
③③④④ |②---|
口口口口 |③---|
口口口口 |④---|
71
口口口口 |①---|
口口口口 |②---|
③②②④ |③---|
③①①④ |④---|
72
口①①口 |①---|
口口②② |----|
②②口口 |②---|
口口口口 |----|
73
④④口口 |①---|
③③口口 |②---|
口口②② |③---|
口口①① |④---|
74
④④④④ |①---|
③③③③ |②---|
②②②② |③---|
①①①① |④---|
75
④④口口 |①---|
③③口口 |②---|
口口②② |③---|
口口①① |④---|
76
④④④④ |①---|
③③③③ |②---|
②②②② |③---|
①①①① |④---|
77
④④口口 |①---|
③③口口 |②---|
口口②② |③---|
口口①① |④---|
78
④④④④ |①---|
③③③③ |②---|
②②②② |③---|
①①①① |④---|
79
④④口口 |①---|
③③口口 |②---|
口口②② |③---|
口口①① |④---|
80
④④④④ |①---|
③③③③ |②---|
②②②② |③---|
①①①① |④---|
81
④④口口 |①---|
③③口口 |②---|
口口②② |③---|
口口①① |④---|
82
口口①① |①---|
口口①① |----|
①①口口 |----|
①①口口 |----|


不确定度: 0

最終更新:2012年11月23日 01:53