Control
kary ng

BASIC

Level: 2
BPM: 120
Notes: 220

1
口口口口 |----|
口口口口 |----|
口口口口 |----|
口口口口 |----|
2
口口口口 |①---|
②口口② |----|
口①①口 |②---|
口口口口 |----|
3
口口口口 |①---|
②口口② |----|
口①①口 |②---|
口口口口 |----|
4
口①②口 |①---|
口③④口 |②---|
口口口口 |③---|
口口口口 |④---|
5
口口口口 |①---|
①口口① |----|
口口口口 |----|
口口口口 |----|
6
口口口口 |①---|
口口口口 |②---|
口③口口 |③---|
口①②口 |----|
7
口③口口 |①---|
口①②口 |②---|
口口口口 |③---|
口口口口 |----|
8
口口口口 |①---|
口口口口 |②---|
口口口口 |③---|
①②③④ |④---|
9
口口口口 |①---|
口口口口 |②---|
口①②口 |----|
口口口口 |----|
10
口口口口 |①---|
①②③④ |②---|
口口口口 |③---|
口口口口 |④---|
11
口①②口 |①---|
口口口口 |②---|
口口口口 |----|
口③③口 |③---|
12
口口口口 |①---|
口口口口 |----|
②①①② |②---|
口口口口 |----|
13
口口口口 |①---|
口①②③ |②---|
口口口口 |③---|
口口口口 |----|
14
口口口口 |①---|
口②②口 |----|
口①①口 |②---|
口口口口 |----|
15
①②③口 |①---|
口口口口 |②---|
口口口口 |③---|
口口口口 |----|
16
口口口口 |①---|
口口口口 |----|
①口口① |②---|
②口口② |----|
17
口口口口 |①---|
口口口口 |②---|
口①②③ |③---|
口口口口 |----|
18
②口口② |①---|
①口口① |----|
口口口口 |②---|
口口口口 |----|
19
口口口口 |①---|
口①口口 |②---|
口口②口 |③---|
口③口口 |----|
20
口口口口 |①---|
②口口② |----|
口①①口 |②---|
口口口口 |----|
21
①②③④ |①---|
口口口口 |②---|
口口口口 |③---|
口口口口 |④---|
22
口口口口 |①---|
口①①口 |----|
②口口② |②---|
口口口口 |----|
23
口口口口 |①---|
口口口口 |②---|
口口口口 |③---|
①②③④ |④---|
24
口口口口 |①---|
口②②口 |----|
①口口① |②---|
口口口口 |----|
25
口口口口 |①---|
①口口④ |②---|
口②③口 |③---|
口口口口 |④---|
26
口①①口 |①---|
②口口② |----|
口口口口 |②---|
口口口口 |----|
27
口口口口 |①---|
口②③口 |②---|
①口口④ |③---|
口口口口 |④---|
28
口①②口 |①---|
口③④口 |②---|
口口口口 |③---|
口口口口 |④---|
29
口口口口 |①---|
①口口① |----|
口口口口 |----|
口口口口 |----|
30
口口口口 |①---|
口口口口 |②---|
口③口口 |③---|
口①②口 |----|
31
口③口口 |①---|
口①②口 |②---|
口口口口 |③---|
口口口口 |----|
32
口口口口 |①---|
口口口口 |②---|
口口口口 |③---|
①②③④ |④---|
33
口口口口 |①---|
口口口口 |----|
口①①口 |----|
口口口口 |----|
34
口口口口 |①---|
①②③④ |②---|
口口口口 |③---|
口口口口 |④---|
35
口①②口 |①---|
口口口口 |②---|
口口口口 |----|
口③③口 |③---|
36
口口口口 |①---|
口口口口 |----|
②①①② |②---|
口口口口 |----|
37
口口口口 |①---|
口①②③ |②---|
口口口口 |③---|
口口口口 |----|
38
口口口口 |①---|
口②②口 |----|
口①①口 |②---|
口口口口 |----|
39
①②③口 |①---|
口口口口 |②---|
口口口口 |③---|
口口口口 |----|
40
口口口口 |①---|
口口口口 |----|
①口口① |②---|
②口口② |----|
41
口口口口 |①---|
口口口口 |②---|
口①②③ |③---|
口口口口 |----|
42
②口口② |①---|
①口口① |----|
口口口口 |②---|
口口口口 |----|
43
口口口口 |①---|
口①口口 |②---|
口口②口 |③---|
口③口口 |----|
44
口口口口 |①---|
②口口② |----|
口①①口 |②---|
口口口口 |----|
45
①②③④ |①---|
口口口口 |②---|
口口口口 |③---|
口口口口 |④---|
46
口口口口 |①---|
口①①口 |----|
②口口② |②---|
口口口口 |----|
47
口口口口 |①---|
口口口口 |②---|
口口口口 |③---|
①②③④ |④---|
48
口口口口 |①---|
口②②口 |----|
①口口① |②---|
口口口口 |----|
49
口口口口 |①---|
①口口④ |②---|
口②③口 |③---|
口口口口 |④---|
50
口①①口 |①---|
②口口② |----|
口口口口 |②---|
口口口口 |----|
51
口口口口 |①---|
口②③口 |②---|
①口口④ |③---|
口口口口 |④---|
52
口口口口 |①---|
口口口口 |----|
口②②口 |②---|
①口口① |----|
53
口②③口 |①---|
①口口④ |②---|
口口口口 |③---|
口口口口 |④---|
54
口口口口 |①---|
口①①口 |----|
②口口② |②---|
口口口口 |----|
55
口④④口 |①---②-|
口③③口 |--③---|
⑤②②⑤ |④---|
口①①口 |⑤---|
56
口口口口 |①---|
①口口① |----|
口②②口 |②---|
口口口口 |----|
57
口口口口 |①---|
口口口口 |②---|
①口口④ |③---|
口②③口 |④---|
58
口口口口 |①---|
②口口② |----|
口①①口 |②---|
口口口口 |----|
59
口口口口 |①---|
口①②口 |②---|
口③④口 |③---|
口口口口 |④---|
60
口口口口 |①---|
口口口口 |----|
口口口口 |----|
①口口① |----|


不确定度: 0

最終更新:2012年11月23日 01:53