Control
kary ng

ADVANCED

Level: 5
BPM: 120
Notes: 358

1
口口口口 |----|
口口口口 |----|
口口口口 |----|
口口口口 |----|
2
口口口口 |①-②③|
⑧④⑤⑨ |-④-⑤|
⑥②③⑦ |⑥-⑦-|
口①口口 |⑧-⑨-|
3
口口口口 |①-②③|
⑧④⑤⑨ |-④-⑤|
⑥②③⑦ |⑥-⑦-|
口①口口 |⑧-⑨-|
4
口口口口 |--①-|
口口②口 |②-③-|
口①口口
口③口口

口⑤⑥口
口口口口
口⑦口口 |④-⑤-|
口口④口 |⑥-⑦-|
5
口口口口 |--①-|
口口口口 |----|
口口①口 |----|
口口口口 |----|
6
口口口口 |--①-|
⑤口口口 |②-③-|
③⑥口④ |④-⑤-|
①口口② |--⑥-|
7
口④口口 |①-②-|
口②③口 |③-④-|
口口①口 |----|
口口口口 |----|
8
口口口口 |--①-|
口口口口 |②-③-|
口⑤⑥⑦ |④-⑤-|
①②③④ |⑥-⑦-|
9
口口口口 |--①-|
口①①口 |----|
口口口口 |----|
口口口口 |----|
10
口④⑤口 |--①-|
①②③口 |②-③-|
⑥口口口 |④-⑤-|
口口口口 |--⑥-|
11
口口口口 |①-②-|
口口口口 |③-④-|
口⑤⑥① |----|
口②③④ |⑤-⑥-|
12
口③③口 |①---|
①口口② |②---|
④⑤口口 |③---|
口口口口 |④-⑤-|
13
口口口口 |--①-|
口口口口 |----|
口口口① |--②-|
口②③④ |③-④-|
14
口口口口 |①-②-|
①③⑤⑦ |③-④-|
②④⑥⑧ |⑤-⑥-|
口口口口 |⑦-⑧-|
15
口口①口 |--①-|
④口口口 |----|
②口口③ |--②-|
口口口口 |③-④-|
16
口③④口 |①---|
口⑤⑥① |②---|
口②口口 |③-④-|
口口口口 |⑤-⑥-|
17
口口口口 |--①-|
口口口口 |----|
口口①口 |--②-|
②③④口 |③-④-|
18
口④口口 |①---|
口口口口 |--②-|
口②③口 |③---|
口口口① |--④-|
19
口口口口 |①②③④|
口①②口 |⑤-⑥-|
⑤③④⑥
口口口口

口口口口
口口口口
口⑧⑧口 |⑦---|
⑦口口口 |--⑧-|
20
口口口口 |①---|
⑥①①口 |②-③-|
口口口口 |④-⑤-|
②③④⑤ |--⑥-|
21
口①②口 |①-②-|
口口口③ |③-④-|
口④④口
口口口口

口口口口
⑤口口⑤
口口口口 |----|
口口口口 |--⑤-|
22
①口口① |①---|
口口口口 |②-③-|
⑥口口口 |④-⑤-|
②③④⑤ |--⑥-|
23
口口口口 |①-②-|
口①②口 |③-④-|
口⑥⑥③ |--⑤-|
口④⑤口 |--⑥-|
24
口口口口 |①---|
⑥①①口 |②-③-|
口口口口 |④-⑤-|
②③④⑤ |--⑥-|
25
口①②口 |①-②-|
口口口③ |③-④-|
口④④口
口口口口

口口口口
⑤口口⑤
口口口口 |----|
口口口口 |--⑤-|
26
①口口① |①---|
口口口口 |②-③-|
⑥口口口 |④-⑤-|
②③④⑤ |--⑥-|
27
口口口口 |①-②-|
口①②口 |③-④-|
口口口③ |--⑤-|
口④⑤口 |----|
28
口口口口 |--①-|
口口②口 |②-③-|
口①口口
口③口口

口口⑤口
口口口口
口⑥口口 |④---|
口口④口 |⑤-⑥-|
29
口口口口 |--①-|
口口口口 |----|
口口①口 |----|
口口口口 |----|
30
口口口口 |--①-|
口口口口 |②-③-|
③⑤口④ |④---|
①口口② |--⑤-|
31
口④口口 |①-②-|
口②③口 |③-④-|
口口①口 |----|
口口口口 |----|
32
口口口口 |--①-|
口口口口 |②-③-|
口口⑤⑥ |④---|
①②③④ |⑤-⑥-|
33
口口口口 |--①-|
口①①口 |----|
口口口口 |----|
口口口口 |----|
34
口④⑤口 |--①-|
①②③口 |②-③-|
⑥口口口 |④-⑤-|
口口口口 |--⑥-|
35
口口口口 |①-②-|
口口口口 |③-④-|
口⑤⑥① |----|
口②③④ |⑤-⑥-|
36
口③③口 |①---|
①口口② |②---|
④⑤口口 |③---|
口口口口 |④-⑤-|
37
口口口口 |--①-|
口口口口 |----|
口口口① |--②-|
口②③④ |③-④-|
38
口口口口 |①-②-|
①③⑤⑦ |③-④-|
②④⑥⑧ |⑤-⑥-|
口口口口 |⑦-⑧-|
39
口口①口 |--①-|
④口口口 |----|
②口口③ |--②-|
口口口口 |③-④-|
40
口③④口 |①---|
口⑤⑥① |②---|
口②口口 |③-④-|
口口口口 |⑤-⑥-|
41
口口口口 |--①-|
口口口口 |----|
口口①口 |--②-|
②③④口 |③-④-|
42
口④口口 |①---|
口口口口 |--②-|
口②③口 |③---|
口口口① |--④-|
43
口口口口 |①②③④|
口①②口 |⑤-⑥-|
⑤③④⑥
口口口口

口口口口
口口口口
口⑧⑧口 |⑦---|
⑦口口口 |--⑧-|
44
口口口口 |①---|
⑥①①口 |②-③-|
口口口口 |④-⑤-|
②③④⑤ |--⑥-|
45
口①②口 |①-②-|
口口口③ |③-④-|
口④④口
口口口口

口口口口
⑤口口⑤
口口口口 |----|
口口口口 |--⑤-|
46
①口口① |①---|
口口口口 |②-③-|
⑥口口口 |④-⑤-|
②③④⑤ |--⑥-|
47
口口口口 |①-②-|
口①②口 |③-④-|
口⑥⑥③ |--⑤-|
口④⑤口 |--⑥-|
48
口口口口 |①---|
⑥①①口 |②-③-|
口口口口 |④-⑤-|
②③④⑤ |--⑥-|
49
口①②口 |①-②-|
口口口③ |③-④-|
口④④口
口口口口

口口口口
⑤口口⑤
口口口口 |----|
口口口口 |--⑤-|
50
①口口① |①---|
口口口口 |②-③-|
⑥口口口 |④-⑤-|
②③④⑤ |--⑥-|
51
口口口口 |①-②-|
口①②口 |③-④-|
口⑥⑥③ |--⑤-|
口④⑤口 |--⑥-|
52
口口口口 |①---|
⑥①①口 |②-③-|
口口口口 |④-⑤-|
②③④⑤ |--⑥-|
53
口①②口 |①-②-|
口口口③ |③-④-|
口④④口
口口口口

口口口口
⑤口口⑤
口口口口 |----|
口口口口 |--⑤-|
54
①口口① |①---|
口⑥⑥口 |②-③-|
口口口口 |④-⑤-|
②③④⑤ |--⑥-|
55
①口口① |①---②-|
②口口② |--③---|
③⑥⑥③ |④---|
④⑤⑤④ |⑤-⑥-|
56
口口口口 |①---|
⑥①①口 |②-③-|
口口口口 |④-⑤-|
②③④⑤ |--⑥-|
57
口①②口 |①-②-|
口口口③ |③-④-|
口④④口
口口口口

口口口口
⑤口口⑤
口口口口 |----|
口口口口 |--⑤-|
58
①口口① |①---|
口口口口 |②-③-|
⑥口口口 |④-⑤-|
②③④⑤ |--⑥-|
59
口口口口 |①-②-|
口①②口 |③-④-|
口⑤⑤③ |--⑤-|
口④口口 |----|
60
口口口口 |①---|
①①①① |----|
口口口口 |----|
口口口口 |----|


不确定度: 0

最終更新:2012年11月23日 01:53