Control
kary ng

EXTREME

Level: 7
BPM: 120
Notes: 578

1
口口口口 |----|
口口口口 |----|
口口口口 |----|
口口口口 |----|
2
口⑨⑨口 |①-②③|
③⑧⑧⑤ |-④-⑤|
④⑦⑦口 |⑥-⑦-|
①⑥⑥② |⑧-⑨-|
3
口⑨⑨口 |①-②③|
③⑧⑧⑤ |-④-⑤|
④⑦⑦口 |⑥-⑦-|
①⑥⑥② |⑧-⑨-|
4
③口口口 |①-②-|
口口口口 |③-④-|
②④口口
①口口口

口口口口
口口⑤口
⑧口⑧⑥ |⑤-⑥-|
口口⑦口 |⑦-⑧-|
5
口口口口 |--①-|
口①口① |----|
口口口口 |----|
口口口口 |----|
6
口⑥口口 |--①-|
②⑤⑤③ |②-③-|
口口口口 |④-⑤-|
口④①口 |--⑥-|
7
口口③口 |①-②-|
口口口口 |③-④-|
②④④① |----|
口口口口 |----|
8
①口口口 |--①-|
口②⑦口 |②-③-|
口④⑥口 |④-⑤-|
③口⑦⑤ |⑥-⑦-|
9
口①口口 |--①-|
口口口口 |----|
口①口口 |----|
口口口口 |----|
10
口②口口 |--①-|
⑥⑤口④ |②-③-|
口⑤口① |④-⑤-|
口③口口 |--⑥-|
11
口口②口 |①-②-|
口口④口 |③-④-|
③口④口
口口①口

口口口口
口口口口
口口口口 |----|
⑤⑤⑥⑥ |⑤-⑥-|
12
口②③口 |①---|
②①①③ |②---|
④②③⑤ |③---|
口④⑤口 |④-⑤-|
13
①④④① |--①-|
②②③③ |----|
口①①口 |--②-|
口口口口 |③-④-|
14
①口口① |①-②-|
口口口口 |③-④-|
口③③口
②④④②

⑥口⑦口
⑥口⑦口
⑤口口⑤ |⑤---|
口口口口 |⑥-⑦-|
15
口①口① |--①-|
口①口① |----|
口③②④ |--②-|
④②③口 |③-④-|
16
口口②② |①---|
②②口口 |②---|
①口口口
口口口①

④③口口
口口③④
⑤口⑥⑤ |③-④-|
⑥⑥口口 |⑤-⑥-|
17
口口口口 |--①-|
口口口口 |----|
口①口口
口口①①

口口口口
口③②口
②口口③ |--②-|
④口口④ |③-④-|
18
①①②② |①---|
⑥⑦⑦口 |②-③-|
口⑤④⑥ |④-⑤-|
④口③口 |⑥-⑦-|
19
口①⑤⑤ |①②③④|
口口口② |⑤-⑥-|
③⑥⑥口
口口口④

口口口口
⑧⑧口⑧
口口口口 |⑦---|
⑦⑦口口 |--⑧-|
20
①②①① |①---|
⑥口③口 |②-③-|
④④口④ |④-⑤-|
⑤口⑤⑤ |--⑥-|
21
口④④口 |①-②-|
口④④③ |③-④-|
口口①口
口②口口

口口口口
口口口口
口口口口 |----|
⑤⑤口⑤ |--⑤-|
22
口口口口 |①---|
口口口口 |②-③-|
①③①①
口口②口

⑤⑤口⑤
④口④④
口口口⑥ |④-⑤-|
口口口口 |--⑥-|
23
⑥口①口 |①-②-|
⑥②口⑤ |③-④-|
③口⑤口 |--⑤-|
⑥④④口 |--⑥-|
24
口①口口 |①---|
口③口口 |②-③-|
②①口口
口①口口

口口④⑤
口口口⑤
口口④口 |④-⑤-|
口⑥④⑤ |--⑥-|
25
口③口口 |①-②-|
④口②口 |③-④-|
④口口①
口口口口

口口口⑤
口口口口
口口口⑤ |----|
口口口⑤ |--⑤-|
26
口口①口 |①---|
口口①② |②-③-|
口口③口
口口①口

⑤④⑥口
口④口口
⑤口口口 |④-⑤-|
⑤④口口 |--⑥-|
27
口口⑤口 |①-②-|
①⑤口④ |③-④-|
口②口④ |--⑤-|
口口③口 |----|
28
②口口口 |--①-|
口口口口 |②-③-|
①③口口
口口口口

口口口口
口口④口
⑦口⑦⑤ |④-⑤-|
口口⑥口 |⑥-⑦-|
29
口口口口 |--①-|
口①口① |----|
口口口口 |----|
口口口口 |----|
30
口⑤口口 |--①-|
②口口③ |②-③-|
口口口口 |④---|
口④①口 |--⑤-|
31
口口③口 |①-②-|
口口口口 |③-④-|
②④④① |----|
口口口口 |----|
32
①口口口 |--①-|
口②⑦口 |②-③-|
口④⑥口 |④-⑤-|
③口⑦⑤ |⑥-⑦-|
33
口①口口 |--①-|
口口口口 |----|
口①口口 |----|
口②②口 |②---|
34
口③口口 |①-②-|
⑦⑥口⑤ |③-④-|
口⑥口② |⑤-⑥-|
①④口① |--⑦-|
35
口口②口 |①-②-|
口口④口 |③-④-|
③口④口
口口①口

口口口口
口口口口
口口口口 |----|
⑤⑤⑥⑥ |⑤-⑥-|
36
口②③口 |①---|
②①①③ |②---|
④②③⑤ |③---|
口④⑤口 |④-⑤-|
37
①④④① |--①-|
②②③③ |----|
口①①口 |--②-|
口口口口 |③-④-|
38
①口口① |①-②-|
口④口④ |③-④-|
口③③口
②口口②

⑦口⑧口
⑦口⑧口
⑤口口⑤ |⑤-⑥-|
口⑥⑥口 |⑦-⑧-|
39
口①口① |--①-|
口①口① |----|
口③②④ |--②-|
④②③口 |③-④-|
40
口口②② |①---|
②②口口 |②---|
①口口口
口口口①

④③口口
口口③④
⑤口⑥⑤ |③-④-|
⑥⑥口口 |⑤-⑥-|
41
口口口口 |--①-|
口口口口 |----|
口①口口
口口①①

口口口口
口③②口
②口口③ |--②-|
④口口④ |③-④-|
42
①①②② |①---|
⑥⑦⑦口 |②-③-|
口⑤④⑥ |④-⑤-|
④口③口 |⑥-⑦-|
43
口①⑤⑤ |①②③④|
口口口② |⑤-⑥-|
③⑥⑥口
口口口④

口口口口
⑧⑧口⑧
口口口口 |⑦---|
⑦⑦口口 |--⑧-|
44
①②①① |①---|
⑥口③口 |②-③-|
④④口④ |④-⑤-|
⑤口⑤⑤ |--⑥-|
45
口④④口 |①-②-|
口④④③ |③-④-|
口口①口
口②口口

口口口口
口口口口
口口口口 |----|
⑤⑤口⑤ |--⑤-|
46
口口口口 |①---|
口口口口 |②-③-|
①③①①
口口②口

⑤⑤口⑤
④口④④
口口口⑥ |④-⑤-|
口口口口 |--⑥-|
47
⑥口①口 |①-②-|
⑥②口⑤ |③-④-|
③口⑤口 |--⑤-|
⑥④④口 |--⑥-|
48
口①口口 |①---|
口③口口 |②-③-|
②①口口
口①口口

口口④⑤
口口口⑤
口口④口 |④-⑤-|
口⑥④⑤ |--⑥-|
49
口③口口 |①-②-|
④口②口 |③-④-|
④口口①
口口口口

口口口⑤
口口口口
口口口⑤ |----|
口口口⑤ |--⑤-|
50
口口①口 |①---|
口口①② |②-③-|
口口③口
口口①口

⑤④⑥口
口④口口
⑤口口口 |④-⑤-|
⑤④口口 |--⑥-|
51
口口口口 |①-②-|
①口④口 |③-④-|
口②口④
口口③口

口口口口
⑥⑥口⑥
⑤口口口 |--⑤-|
口⑤口口 |--⑥-|
52
①②①① |①---|
⑥口③口 |②-③-|
④④口④ |④-⑤-|
⑤口⑤⑤ |--⑥-|
53
口④④口 |①-②-|
口④④③ |③-④-|
口口①口
口②口口

口口口口
口口口口
口口口口 |----|
⑤⑤口⑤ |--⑤-|
54
口口口口 |①---|
口口口口 |②-③-|
①③①①
口口②口

⑤⑤口⑤
④口④④
口口口⑥ |④-⑤-|
口口口口 |--⑥-|
55
口口口口 |①---②-|
③口口③ |--③---|
口①①口
口②②口

⑥口⑤⑤
⑥④④口
口口口口 |④---|
⑥口口口 |⑤-⑥-|
56
口①口口 |①---|
口③口口 |②-③-|
②①口口
口①口口

口口④⑤
口口口⑤
口口④口 |④-⑤-|
口⑥④⑤ |--⑥-|
57
口③口口 |①-②-|
④口②口 |③-④-|
④口口①
口口口口

口口口⑤
口口口口
口口口⑤ |----|
口口口⑤ |--⑤-|
58
口口①口 |①---|
口口①② |②-③-|
口口③口
口口①口

⑤④⑥口
口④口口
⑤口口口 |④-⑤-|
⑤④口口 |--⑥-|
59
口口口口 |①-②-|
①口④口 |③-④-|
⑤②口④ |--⑤-|
口⑤③口 |----|
60
口①①口 |①---|
①①①① |----|
口口口口 |----|
口口口口 |----|


不确定度: 0

最終更新:2012年11月23日 01:31