Clover
Yum!Yum!ORANGE

BASIC

Level: 3
BPM: 153
Notes: 182

1
口口口口 |----|
口口口口 |----|
口口口口 |----|
口口口口 |----|
2
口口口口 |①---|
口③②口 |②---|
①口口口 |③---|
口口口口 |----|
3
口口口口 |①---|
口口口口 |②---|
④口口① |③---|
口③②口 |④---|
4
口口口口 |----|
口口口口 |①---|
口①②口 |②---|
口口口口 |----|
5
口①①口 |①---|
口口口口 |----|
口口口口 |----|
口口口口 |----|
6
口口口口 |①---|
口③②口 |②---|
①口口口 |③---|
口口口口 |----|
7
口口口口 |①---|
口口口口 |②---|
④口口① |③---|
口③②口 |④---|
8
口口口口 |----|
口口口口 |①---|
口①②口 |②---|
口口口口 |----|
9
口口口④ |①---|
口口③口 |②---|
口②口口 |③---|
①口口口 |④---|
10
口口口口 |①---|
口②口口 |----|
口口①口 |②---|
口口口口 |----|
11
口口口口 |①---|
口口①口 |----|
③②口口 |②---|
口口口口 |③---|
12
口口口口 |①---|
①②口口 |----|
口口口口 |②---|
口口口口 |----|
13
口口口口 |①---|
口口口③ |----|
口口①② |②---|
口口口口 |③---|
14
口口口口 |①---|
口口①口 |----|
口②口口 |②---|
口口口口 |----|
15
口口口口 |①---|
口①口口 |----|
口口②③ |②---|
口口口口 |③---|
16
口口口口 |①---|
口口②① |----|
口口口口 |②---|
口口口口 |----|
17
口口口口 |①---|
③口口口 |----|
②①口口 |②---|
口口口口 |③---|
18
口口②口 |①---|
口①口口 |----|
口口口口 |②---|
口口口口 |----|
19
口口口口 |①---|
口口①口 |----|
口口②口 |②---|
口口口口 |----|
20
口②口口 |①---|
口口①口 |----|
口口口口 |②---|
口口口口 |----|
21
口口口口 |①---|
口①口口 |----|
口②口口 |②---|
口口口口 |----|
22
口口口口 |①---|
口口口口 |----|
口口口口 |②---|
①②口口 |----|
23
口口口口 |①---|
口口口口 |----|
口口口口 |②---|
口口①② |----|
24
口口口口 |①---|
①口口口 |----|
口②口口 |②---|
口口口口 |----|
25
口口口口 |①---|
口口口② |----|
口口①口 |②---|
口口口口 |----|
26
口口口口 |①---|
口口口口 |----|
口①①口 |----|
口口口口 |----|
27
口③④口 |①---|
①口口② |②---|
口口口口 |③---|
口口口口 |④---|
28
口口口口 |①---|
口①口口 |----|
口口口口 |----|
口口口口 |----|
29
口口口口 |①---|
口③④口 |②---|
①口口② |③---|
口口口口 |④---|
30
①②③④ |①---|
口口口口 |②---|
口口口口 |③---|
口口口口 |④---|
31
口口口口 |①---|
①口③口 |②---|
口②口④ |③---|
口口口口 |④---|
32
口口口口 |①---|
口口口口 |②---|
口口口口 |③---|
①②③④ |④---|
33
口口口口 |①---|
口①①口 |----|
口口口口 |----|
口口口口 |----|
34
口口口口 |①-②-|
口口口口 |----|
①口口② |----|
口口口口 |----|
35
口口口口 |①-②-|
口①②口 |----|
口口口口 |----|
口口口口 |----|
36
口口口口 |①---|
口口口口 |②---|
①②③④ |③---|
口口口口 |④---|
37
口③口口 |--①-|
口口②口 |-②--|
口①口口 |③---|
口口口口 |----|
38
口口②口 |①---|
口①口口 |----|
口口口口 |②---|
口口口口 |----|
39
口口口口 |①---|
口口①口 |----|
口口②口 |②---|
口口口口 |----|
40
口②口口 |①---|
口口①口 |----|
口口口口 |②---|
口口口口 |----|
41
口口口口 |①---|
口①口口 |----|
口②口口 |②---|
口口口口 |----|
42
口口口口 |①---|
口口口口 |----|
口口口口 |②---|
①②口口 |----|
43
口口口口 |①---|
口口口口 |----|
口口口口 |②---|
口口①② |----|
44
口口口口 |①---|
①口口口 |----|
口②口口 |②---|
口口口口 |----|
45
口口口口 |①---|
口口口② |----|
口口①口 |②---|
口口口口 |----|
46
口口口口 |①---|
口口口口 |----|
口①①口 |----|
口口口口 |----|
47
口③④口 |①---|
①口口② |②---|
口口口口 |③---|
口口口口 |④---|
48
口口口口 |①---|
口①口口 |----|
口口口口 |----|
口口口口 |----|
49
口口口口 |①---|
口③④口 |②---|
①口口② |③---|
口口口口 |④---|
50
①②③④ |①---|
口口口口 |②---|
口口口口 |③---|
口口口口 |④---|
51
口口口口 |①---|
①口③口 |②---|
口②口④ |③---|
口口口口 |④---|
52
口口口口 |①---|
口口口口 |②---|
口口口口 |③---|
①②③④ |④---|
53
口口口口 |①---|
口①②口 |②---|
口③④口 |③---|
口口口口 |④---|
54
口口口口 |----|
口口口口 |----|
口口口口 |----|
口口口口 |----|
55
口②③口 |①---|
①口口④ |②---|
口口口口 |③---|
口口口口 |④---|
56
口口口口 |①---|
口口口口 |②---|
④口口① |③---|
口③②口 |④---|
57
口口口口 |----|
口①②口 |①---|
口③口口 |②---|
口口口口 |③---|
58
口口口口 |①---|
口口口口 |②---|
口口①口 |③---|
④②③口 |④---|
59
口②③口 |①---|
①口口④ |②---|
口口口口 |③---|
口口口口 |④---|
60
口口口口 |①---|
口口口口 |②---|
④口口① |③---|
口③②口 |④---|
61
口口口口 |①---|
口①②口 |②---|
口③④口 |③---|
口口口口 |④---|
62
口口口口 |①---|
口口口口 |②---|
①口口② |③---|
③口口④ |④---|
63
口口口口 |①---|
口②口口 |----|
口口①口 |②---|
口口口口 |----|
64
口口口口 |①---|
口口①口 |----|
③②口口 |②---|
口口口口 |③---|
65
口口口口 |①---|
①②口口 |----|
口口口口 |②---|
口口口口 |----|
66
口口口口 |①---|
口口口③ |----|
口口①② |②---|
口口口口 |③---|
67
口①①口 |①---|
口口口口 |----|
口口口口 |----|
口口口口 |----|


不确定度: 0

最終更新:2012年11月23日 01:31