Clover
Yum!Yum!ORANGE

ADVANCED

Level: 6
BPM: 153
Notes: 356

1
口口口口 |----|
口口口口 |----|
口口口口 |----|
口口口口 |----|
2
①①③③ |①---|
④口口② |②---|
②口口④ |③---|
口口口口 |④---|
3
①①③③ |①---|
④口口② |②---|
②口口④ |③---|
口口口口 |④---|
4
①①③③ |①---|
④口口② |②---|
②口口④ |③---|
口口口口 |④---|
5
①①③③ |①---|
④口口② |②---|
②口口④ |③---|
口口口口 |④---|
6
口口口口 |①---|
口①①口 |----|
口口口口 |----|
口口口口 |----|
7
口①①口 |①---|
口②②口 |----|
口口口口 |②---|
口口口口 |----|
8
口口口口 |①---|
口口口口 |----|
口口口口 |----|
①口口① |----|
9
④③②④ |①---|
口③①口 |②---|
口③②口 |③---|
口口口口 |④---|
10
口口口口 |①-②-|
②③口口 |③---|
①④⑤⑥ |④--⑤|
口口口口 |--⑥-|
11
③④⑤⑥ |①---|
口口口口 |②---|
口口口口 |③-④-|
口①②口 |⑤-⑥-|
12
口口口口 |①-②-|
②③口口 |③---|
①④⑤⑥ |④--⑤|
口口口口 |--⑥-|
13
③④⑤⑥ |①---|
口口口口 |②---|
口口口口 |③-④-|
口①②口 |⑤-⑥-|
14
口口口口 |①-②-|
口口③② |③---|
①口口口
口口口口

口口口口
口口口口
⑥⑤④口 |④--⑤|
口口口口 |--⑥-|
15
⑥⑤④③ |①---|
口口口口 |②---|
口口口口 |③-④-|
口②①口 |⑤-⑥-|
16
口口口口 |①-②-|
口口③② |③---|
①口口口
口口口口

口口口口
口口口口
⑥⑤④口 |④--⑤|
口口口口 |--⑥-|
17
⑥⑤④③ |①---|
口口口口 |②---|
口口口口 |③-④-|
口②①口 |⑤-⑥-|
18
口口口口 |①---|
⑥①①口 |②-③-|
②口口⑤ |④-⑤-|
口③④口 |--⑥-|
19
②口③④ |--①-|
口口口① |--②-|
口口口口 |--③-|
口口口口 |④---|
20
口口口口 |----|
口②③口 |①-②-|
①口口④ |③-④-|
⑤口口口 |--⑤-|
21
口口口口 |--①-|
口口口口 |--②-|
口③④口 |--③-|
口②口① |④---|
22
③口口④ |----|
①口口② |①-②-|
口口口口 |③-④-|
口⑤口口 |--⑤-|
23
口③④口 |--①-|
口②口口 |--②-|
口口①口 |--③-|
口口口口 |④---|
24
口口口口 |----|
口口口口 |①-②-|
③口⑤④ |③-④-|
①口口② |--⑤-|
25
口③④口 |--①-|
口①②口 |②-③-|
口口口口 |④---|
口口口口 |----|
26
口口口口 |①---|
口口口① |----|
口口口① |----|
口口①① |----|
27
口⑦口口 |--①-|
口⑤⑥口 |②-③-|
口③④口 |④-⑤-|
口①②口 |⑥-⑦-|
28
口口口口 |①---|
①口口① |----|
口口口口 |----|
口口口口 |----|
29
口⑦口口 |--①-|
口⑤⑥口 |②-③-|
口③④口 |④-⑤-|
口①②口 |⑥-⑦-|
30
口口①口 |①---|
口④⑤口 |②---|
口口③③ |③---|
②②口口 |④-⑤-|
31
口口口口 |--①-|
口口口口 |②-③-|
①②⑥⑤ |④-⑤-|
口⑦③④ |⑥-⑦-|
32
口口口口 |①---|
②③④口 |②---|
口口口口 |③---|
①口口口 |④---|
33
口口口口 |①---|
口口口① |----|
口④口口 |--②-|
②口口③ |③-④-|
34
口口口口 |----|
口口口口 |----|
口口口口 |----|
口口口口 |----|
35
口口口口 |①-②-|
口①②口 |----|
口口口口 |----|
口口口口 |----|
36
⑧口口⑨ |①-②-|
口⑥⑦口 |③-④⑤|
口④⑤口 |-⑥⑦-|
口①②③ |⑧-⑨-|
37
口口口口 |--①-|
③口口③ |-②--|
②口口② |③---|
①口口① |----|
38
口口口口 |----|
⑤口口口 |①-②-|
①口口④ |③-④-|
口②③口 |--⑤-|
39
②口③④ |--①-|
口口口① |--②-|
口口口口 |--③-|
口口口口 |④---|
40
口口口口 |----|
口②③口 |①-②-|
①口口④ |③-④-|
⑤口口口 |--⑤-|
41
口口口口 |--①-|
口口口口 |--②-|
口③④口 |--③-|
口②口① |④---|
42
③口口④ |----|
①口口② |①-②-|
口口口口 |③-④-|
口⑤口口 |--⑤-|
43
口③④口 |--①-|
口②口口 |--②-|
口口①口 |--③-|
口口口口 |④---|
44
口口口口 |----|
口口口口 |①-②-|
③口⑤④ |③-④-|
①口口② |--⑤-|
45
口③④口 |--①-|
口①②口 |②-③-|
口口口口 |④---|
口口口口 |----|
46
口口口口 |①---|
口口口口 |----|
①①①① |----|
口口口口 |----|
47
口⑦口口 |--①-|
口⑤⑥口 |②-③-|
口③④口 |④-⑤-|
口①②口 |⑥-⑦-|
48
口口口口 |①---|
①口口① |----|
口口口口 |----|
口口口口 |----|
49
口⑦口口 |--①-|
口⑤⑥口 |②-③-|
口③④口 |④-⑤-|
口①②口 |⑥-⑦-|
50
口口①口 |①---|
口④⑤口 |②---|
口口③③ |③---|
②②口口 |④-⑤-|
51
口口口口 |--①-|
口口口口 |②-③-|
①②⑥⑤ |④-⑤-|
口⑦③④ |⑥-⑦-|
52
口口口口 |①---|
②③④口 |②---|
口口口口 |③---|
①口口口 |④---|
53
口口口口 |①-②-|
口⑤⑤口 |③-④-|
①②③④ |--⑤-|
口口口口 |----|
54
④口口④ |①-②-|
③口口③ |-③--|
②口口② |④---|
口①①口 |----|
55
⑦口口口 |①-②-|
⑥①②口 |③-④-|
⑤④③口 |--⑤-|
口口口口 |⑥-⑦-|
56
口①②③ |①-②-|
口口口④ |③-④-|
口⑤⑥⑦ |--⑤-|
口口口口 |⑥-⑦-|
57
口②③口 |----|
①口口④ |①-②-|
口⑥⑤口 |③-④-|
口口口口 |⑤-⑥-|
58
口口口口 |①---|
口①②口 |②---|
口口口口 |③-④-|
③④⑤口 |⑤---|
59
⑦口口口 |①-②-|
⑥①②口 |③-④-|
⑤④③口 |--⑤-|
口口口口 |⑥-⑦-|
60
口①②③ |①-②-|
口口口④ |③-④-|
口⑤⑥⑦ |--⑤-|
口口口口 |⑥-⑦-|
61
口口口口 |①---|
口③④口 |②---|
口口口口 |③-④-|
②①①② |----|
62
口口口口 |--①-|
口口口口 |②-③-|
①②③④ |④---|
口⑤⑤口 |⑤---|
63
口口口口 |--①-|
①②口口 |②---|
口③④⑤ |③--④|
口口口口 |--⑤-|
64
③④⑤⑥ |①---|
口口口口 |②---|
口口口口 |③-④-|
口①②口 |⑤-⑥-|
65
口口口口 |--①-|
①②口口 |②---|
口③④⑤ |③--④|
口口口口 |--⑤-|
66
③④⑤⑥ |①---|
口口口口 |②---|
口口口口 |③-④-|
口①②口 |⑤-⑥-|
67
口口口口 |①---|
口①①口 |----|
口口口口 |----|
口口口口 |----|


不确定度: 0

最終更新:2012年11月23日 01:31