Clover
Yum!Yum!ORANGE

EXTREME

Level: 7
BPM: 153
Notes: 530

1
口口口口 |----|
口口口口 |----|
口口口口 |----|
口口口口 |----|
2
⑥③③⑥ |①---|
②口口② |②---|
口口口口 |③-④-|
④①①⑤ |⑤-⑥-|
3
口⑦⑦口 |--①-|
⑤③③⑥ |②-③-|
②口口② |④-⑤-|
④①①④ |⑥-⑦-|
4
口口口口 |----|
③口②口 |①---|
口②口④ |②-③-|
⑤①①⑤ |④-⑤-|
5
⑨①②⑩ |①②③④|
⑪③④⑫ |⑤⑥⑦⑧|
⑬⑤⑥⑭ |⑨⑩⑪⑫|
⑮⑦⑧⑯ |⑬⑭⑮⑯|
6
⑥③③⑥ |①---|
口②②口 |②---|
口①①口 |③-④-|
④口口⑤ |⑤-⑥-|
7
口⑦⑦口 |--①-|
⑤③③⑥ |②-③-|
②口口② |④-⑤-|
④①①④ |⑥-⑦-|
8
口口口口 |----|
口③口口 |①---|
②口③② |②---|
①口口① |--③-|
9
①口口口 |①---|
②④④③ |②---|
③④④② |③---|
口口口① |④---|
10
①⑤⑤① |--①-|
口③③口 |②---|
口口口口 |③--④|
④②②④ |--⑤-|
11
⑥⑤④③ |①---|
②口口① |②---|
①口口② |③-④-|
③④⑤⑥ |⑤-⑥-|
12
口口口口 |--①-|
①口口② |②---|
②口口①
口口口口

口口口口
⑤③④口
口④③⑤ |③--④|
口口口口 |--⑤-|
13
⑥②①③ |①---|
⑤口口④ |②---|
④口口⑤ |③-④-|
③①②⑥ |⑤-⑥-|
14
口⑤⑤口 |--①-|
口③③口 |②---|
口①①口 |③--④|
④②②④ |--⑤-|
15
⑥⑤④③ |①---|
②口口① |②---|
①口口② |③-④-|
③④⑤⑥ |⑤-⑥-|
16
口口口口 |--①-|
①口口② |②---|
②口口①
口口口口

口口口口
⑤③④口
口④③⑤ |③--④|
口口口口 |--⑤-|
17
⑥②①③ |①---|
⑤口口④ |②---|
④口口⑤ |③-④-|
③①②⑥ |⑤-⑥-|
18
口②③口 |①---|
口①①口 |②-③-|
口①①口
口口口口

口口口口
④⑥口⑤
口口口口 |④-⑤-|
口口口口 |--⑥-|
19
口口口口 |--①-|
口口口口 |--②-|
口③④① |--③-|
②口口口 |④---|
20
口③④口 |①-②-|
⑤⑦口⑥ |③-④-|
②口口② |⑤-⑥-|
口①①口 |--⑦-|
21
口口口口 |--①-|
口口口口 |--②-|
口③④① |--③-|
②口口口 |④---|
22
①口⑥① |①-②-|
⑤②②口 |③-④-|
⑦口口④ |⑤-⑥-|
口③口口 |--⑦-|
23
②口口口 |--①-|
口口口① |--②-|
口③④口 |--③-|
口口口口 |④---|
24
口①①口 |①-②-|
②④口② |③-④-|
③⑦⑦⑥ |⑤-⑥-|
口口⑤口 |--⑦-|
25
口口口口 |--①-|
②③④口 |②-③-|
口口口口 |④---|
口①口口 |----|
26
口口口口 |①---|
①口口① |----|
口①①口 |----|
口口口口 |----|
27
口②⑦口 |--①-|
①口口⑥ |②-③-|
口④⑤口 |④-⑤-|
③口口口 |⑥-⑦-|
28
①口口① |①---|
口①①口 |----|
口口口口 |----|
口口口口 |----|
29
口①口口 |--①-|
口⑦口② |②-③-|
③口口⑥ |④-⑤-|
口⑤④口 |⑥-⑦-|
30
口②②口 |①---|
①口口① |②---|
口③③口 |③---|
④口口⑤ |④-⑤-|
31
口①④口 |--①-|
口③②口 |②-③-|
⑤口⑥口 |④-⑤-|
口口⑦口 |⑥-⑦-|
32
口口口口 |①---|
②④①③ |②---|
③①④② |③---|
口口口口 |④---|
33
①口口① |①---|
④口口④ |----|
口④④口 |--②-|
口②③口 |③-④-|
34
口①①口 |①-②-|
口②②口 |----|
口口口口 |----|
口口口口 |----|
35
口①①口 |①-②-|
口②②口 |----|
口口口口 |----|
口口口口 |----|
36
①②③口 |①-②-|
口④⑦口 |③-④⑤|
⑥⑧⑨⑤ |-⑥⑦-|
口口口口 |⑧-⑨-|
37
口口口口 |--①-|
③口口③ |-②--|
②口口② |③---|
①口口① |----|
38
口③④口 |①-②-|
⑤⑦口⑥ |③-④-|
②口口② |⑤-⑥-|
口①①口 |--⑦-|
39
口口口口 |--①-|
口口口口 |--②-|
口③④① |--③-|
②口口口 |④---|
40
口③④口 |①-②-|
⑤⑦口⑥ |③-④-|
②口口② |⑤-⑥-|
口①①口 |--⑦-|
41
口口口口 |--①-|
口口口口 |--②-|
口③④① |--③-|
②口口口 |④---|
42
①口⑥① |①-②-|
⑤②②口 |③-④-|
⑦口口④ |⑤-⑥-|
口③口口 |--⑦-|
43
②口口口 |--①-|
口口口① |--②-|
口③④口 |--③-|
口口口口 |④---|
44
口①①口 |①-②-|
②④口② |③-④-|
③⑦⑦⑥ |⑤-⑥-|
口口⑤口 |--⑦-|
45
口口口口 |--①-|
口口④口 |②-③-|
②口口③ |④---|
口①口口 |----|
46
口口口口 |①---|
口口口口 |----|
口①①口 |----|
①口口① |----|
47
口②⑦口 |--①-|
①口口⑥ |②-③-|
口④⑤口 |④-⑤-|
③口口口 |⑥-⑦-|
48
①口口① |①---|
口①①口 |----|
口口口口 |----|
口口口口 |----|
49
口①口口 |--①-|
口⑦口② |②-③-|
③口口⑥ |④-⑤-|
口⑤④口 |⑥-⑦-|
50
口②②口 |①---|
①口口① |②---|
口③③口 |③---|
④口口⑤ |④-⑤-|
51
口①④口 |--①-|
口③②口 |②-③-|
⑤口⑥口 |④-⑤-|
口口⑦口 |⑥-⑦-|
52
口口口口 |①---|
②④①③ |②---|
③①④② |③---|
口口口口 |④---|
53
④口口① |①-②-|
②⑤⑤③ |③-④-|
③口口② |--⑤-|
①口口④ |----|
54
④口口④ |①-②-|
③口口③ |-③--|
②①①② |④---|
口口口口 |----|
55
口⑤口口 |①-②-|
④②①③ |③-④-|
③①②④ |--⑤-|
⑦口⑥口 |⑥-⑦-|
56
口口口① |①-②-|
②⑦⑥口 |③-④-|
④⑤口③ |--⑤-|
口口口口 |⑥-⑦-|
57
口⑤口④ |----|
③口⑥口 |①-②-|
口口②口 |③-④-|
口①口口 |⑤-⑥-|
58
④⑤口口 |①---|
③口口口 |②---|
口口②② |③-④-|
①①口口 |⑤---|
59
口口④④ |①-②-|
口口③③ |③-④-|
口口②②
口口①①

口口口口
口口口口
口口口口 |--⑤-|
⑦⑤⑥口 |⑥-⑦-|
60
口口⑤口 |①-②-|
④口口③ |③-④-|
②口口⑥ |--⑤-|
口⑦口① |⑥-⑦-|
61
①口口① |①---|
②口口② |②---|
口③④口 |③-④-|
口口口口 |----|
62
⑤口口⑤ |--①-|
口④④口 |②-③-|
①口口② |④---|
②③③① |⑤---|
63
口⑤⑤口 |--①-|
口③③口 |②---|
口①①口 |③--④|
④②②④ |--⑤-|
64
⑥⑤④③ |①---|
②口口① |②---|
①口口② |③-④-|
③④⑤⑥ |⑤-⑥-|
65
口口口口 |--①-|
①口口② |②---|
②口口①
口口口口

口口口口
⑤③④口
口④③⑤ |③--④|
口口口口 |--⑤-|
66
⑥②①③ |①---|
⑤口口④ |②---|
④口口⑤ |③-④-|
③①②⑥ |⑤-⑥-|
67
口口口口 |①---|
口①①口 |----|
口①①口 |----|
口口口口 |----|


不确定度: 0

最終更新:2012年11月23日 01:30