PRANA
TAG

EXTREME

Level: 10
BPM: 188
Notes: 841

1
口口口口 |----|
口口口口 |----|
口口口口 |----|
口口口口 |----|
2
口口口口 |①---|
口口口口 |--②-|
口口口口 |----|
①②③口 |③---|
3
②口口③ |--①-|
口口口口 |----|
口口口口 |②---|
口口口① |③---|
4
口口口口 |①---|
口口口口 |--②-|
口口口口 |----|
①②③口 |③---|
5
②口口③ |--①-|
口口口口 |----|
口口口口 |②---|
口口口① |③---|
6
⑤口口⑥ |①-②-|
①③④⑧ |③-④-|
⑦口口② |⑤-⑥-|
①④⑦口 |⑦-⑧-|
7
⑤口口⑦ |①-②-|
⑤③④⑧ |③-④-|
口①②⑥ |⑤-⑥-|
⑦口口② |⑦-⑧-|
8
口③④口 |①②③④|
口⑦⑧口 |⑤⑥⑦⑧|
口①②口
口⑤⑥口

口口口口
⑪口口⑫
⑨⑮⑯⑩ |⑨⑩⑪⑫|
⑬口口⑭ |⑬⑭⑮⑯|
9
口①①口 |①---|
口③④口 |②-③④|
口口口口
口②②口

⑤⑦⑦⑤
⑥口口⑥
⑤口口⑤ |⑤--⑥|
⑥口口⑥ |--⑦-|
10
口口口口 |①---|
⑤④②⑤ |②-③-|
③①①③ |④-⑤-|
⑦口⑥⑦ |⑥-⑦-|
11
②口口② |①-②-|
⑤④③⑤ |③---|
④①口④ |④---|
口口⑤口 |⑤---|
12
口①口口 |①---|
⑤④②⑤ |②-③-|
③①①③ |④-⑤-|
⑦口⑥⑦ |⑥-⑦-|
13
②④④② |①-②-|
口④③口 |③---|
口①口口 |④---|
口⑤⑤⑤ |⑤---|
14
口口口口 |①---|
口口②口 |②-③-|
③①①③
①口口口

口口口口
⑤④口⑤
口口口口 |④-⑤-|
⑦口⑥⑦ |⑥-⑦-|
15
②口口② |①-②-|
⑤④口⑤ |③---|
④①③④ |④---|
口口⑤口 |⑤---|
16
⑤①①⑤ |①---|
口③③口 |②-③-|
④①②⑥ |④-⑤-|
⑦口口⑦ |⑥-⑦-|
17
口⑥⑥口 |①-②-|
②⑤③② |③-④-|
口①口口 |⑤-⑥-|
口④④⑦ |⑦---|
18
口口口口 |①---|
口口②口 |②-③-|
③①①③
①口口口

口口口口
⑤④口⑤
口口口口 |④-⑤-|
⑦口⑥⑦ |⑥-⑦-|
19
②口口② |①-②-|
⑤④③⑤ |③---|
④①口④ |④---|
口口⑤口 |⑤---|
20
口口口口 |①---|
⑤④②⑤ |②-③-|
③①①③ |④-⑤-|
⑦①⑥⑦ |⑥-⑦-|
21
②④④② |①-②-|
口口③口 |③---|
④①口口 |④---|
口⑤⑤⑤ |⑤---|
22
口④⑥口 |①---|
⑤①②⑤ |②-③-|
③①①③ |④-⑤-|
⑦口口⑦ |⑥-⑦-|
23
②口口② |①-②-|
⑤口口⑤ |③---|
④①③④ |④---|
口④⑤口 |⑤---|
24
⑤①①⑤ |①---|
口③③口 |②-③-|
④①②⑥ |④-⑤-|
⑦口口⑦ |⑥-⑦-|
25
口⑥⑥口 |①-②-|
②⑤⑦② |③-④-|
口①③口 |⑤-⑥-|
口④④口 |⑦---|
26
⑦⑧口口 |①-②-|
口口口口 |③-④-|
①②③口 |⑤-⑥-|
口⑥⑤④ |⑦-⑧-|
27
口口①口 |①-②-|
④④③② |③-④-|
⑤⑥⑦⑦ |⑤-⑥-|
口口口口 |⑦---|
28
①②③口 |①-②-|
口⑥⑤④ |③-④-|
⑦⑧口口 |⑤-⑥-|
口口口口 |⑦-⑧-|
29
⑧⑦⑥⑤ |①-②-|
口口口口 |③-④-|
口口①口 |⑤-⑥-|
口④③② |⑦-⑧-|
30
⑦⑧口口 |①-②-|
口口口口 |③-④-|
①②③口 |⑤-⑥-|
口⑥⑤④ |⑦-⑧-|
31
口口①口 |①-②-|
④④③② |③-④-|
⑤⑥⑦⑦ |⑤-⑥-|
口口口⑧ |⑦-⑧-|
32
③④⑤⑤ |①-②-|
口口口口 |③-④-|
⑧⑧⑦⑥ |⑤-⑥-|
②②①口 |⑦-⑧-|
33
口口口口 |----|
口①①口 |①---|
口④③② |--②-|
口口口口 |③-④-|
34
③口④② |①-②③|
⑤⑧⑧⑥ |--④-|
④⑦口口 |-⑤⑥-|
①口口口 |⑦-⑧-|
35
③口④② |①-②③|
⑤⑧⑧⑥ |--④-|
④⑦口口 |-⑤⑥-|
①⑨口口 |⑦-⑧⑨|
36
③口④② |①-②③|
⑤⑧⑧⑥ |--④-|
④⑦口口 |-⑤⑥-|
①口口口 |⑦-⑧-|
37
③口④② |①-②③|
⑤⑨⑨⑥ |--④-|
④⑦⑧口 |-⑤⑥-|
①⑩口口 |⑦⑧⑨⑩|
38
③口④② |①-②③|
⑤⑧⑧⑥ |--④-|
④⑦口口 |-⑤⑥-|
①口口口 |⑦-⑧-|
39
③口④② |①-②③|
⑤⑧⑧⑥ |--④-|
④⑦口口 |-⑤⑥-|
①⑨口口 |⑦-⑧⑨|
40
③口④② |①-②③|
⑤⑧⑧⑥ |--④-|
④⑦口口 |-⑤⑥-|
①口口口 |⑦-⑧-|
41
③②⑥⑤ |①-②③|
口口口口 |--④-|
口⑦⑧口 |-⑤⑥-|
①口口④ |⑦-⑧-|
42
③④⑥口 |①-②-|
口口⑤口 |③④-⑤|
①⑧⑩② |⑥-⑦⑧|
口⑦⑨口 |-⑨⑩-|
43
③④⑥口 |①-②-|
口口⑤口 |③④-⑤|
①⑧⑩② |⑥-⑦⑧|
口⑦⑨口 |-⑨⑩-|
44
③④⑥口 |①-②-|
口口⑤口 |③④-⑤|
①⑧⑩② |⑥-⑦⑧|
口⑦⑨口 |-⑨⑩-|
45
③④⑥口 |①-②-|
口口⑤口 |③④-⑤|
①⑧⑩② |⑥-⑦⑧|
口⑦⑨口 |-⑨⑩-|
46
③④⑥口 |①-②-|
口口⑤口 |③④-⑤|
①⑧⑩② |⑥-⑦⑧|
口⑦⑨口 |-⑨⑩-|
47
③④⑥口 |①-②-|
口口⑤口 |③④-⑤|
①⑧⑩② |⑥-⑦⑧|
口⑦⑨口 |-⑨⑩-|
48
③④⑥口 |①-②-|
口口⑤口 |③④-⑤|
①⑧⑩② |⑥-⑦⑧|
口⑦⑨口 |-⑨⑩-|
49
③④⑦⑧ |①-②-|
口⑤⑥口 |③④⑤⑥|
①⑩⑫② |⑦⑧⑨⑩|
口⑨⑪口 |-⑪⑫-|
50
口②②口 |①---|
口口口口 |--②-|
③口口③ |--③-|
①④④① |--④-|
51
④③③④ |①-②-|
②①①② |③-④-|
口口口口
口口口口

口口口口
口口⑪口
⑤⑥⑦⑧ |⑤⑥⑦⑧|
⑨口⑩口 |⑨-⑩⑪|
52
口②②口 |①---|
①口口① |--②-|
口口口口
口口口口

口口口口
④口口④
口口口口 |--③-|
③口口③ |--④-|
53
口③④口 |①-②-|
口口口口 |③-④-|
①口口②
口口口口

⑥口口⑧
⑨⑩⑪⑫
⑬⑭⑮⑯ |⑤⑥⑦⑧|
⑤口口⑦ |⑨⑩⑪⑫⑬⑭⑮⑯|
54
口②②口 |①---|
口口口口 |--②-|
口口口口
口①①口

口口口口
口口口口
口口口口 |--③-|
③④④③ |--④-|
55
口④④口 |①---|
口①①口 |--②-|
②③③② |--③-|
口口口口 |--④-|
56
②口口② |①---|
④口口⑤ |②---|
④口口⑤ |③---|
③①①③ |④-⑤-|
57
口口口口 |--①-|
④⑤⑥⑦ |--②-|
⑧⑨⑩⑪ |--③-|
②①①③ |④⑤⑥⑦⑧⑨⑩⑪|
58
④③③② |①---|
口⑤⑤⑥ |②-③-|
口口口口 |④-⑤-|
⑦①①⑦ |⑥-⑦-|
59
口④③口 |①-②-|
⑤口⑤⑤ |③---|
④②②④ |④---|
口①口口 |⑤---|
60
口口口口 |①---|
⑤①⑥⑤ |②-③-|
③①①③ |④-⑤-|
⑦④②⑦ |⑥-⑦-|
61
②④④② |①-②-|
④口口口 |③---|
口①口③ |④---|
口⑤⑤⑤ |⑤---|
62
口④⑥口 |①---|
⑤①②⑤ |②-③-|
③①①③ |④-⑤-|
⑦口口⑦ |⑥-⑦-|
63
②口口② |①-②-|
⑤①③⑤ |③---|
④口口④ |④---|
口④⑤口 |⑤---|
64
口①①口 |①---|
口①②口 |②-③-|
口③③口
口口口口

口⑦⑦⑥
口口口口
④口口口 |④-⑤-|
⑤口口⑤ |⑥-⑦-|
65
①口口口 |①---②③④⑤|
②③④⑤ |----⑥⑦⑧⑨|
⑥⑦⑧⑨
口口口口

⑯⑭⑮⑰
口口口口
口口口口 |----⑩⑪⑫⑬|
⑩⑪⑫⑬ |⑭⑮⑯⑰|
66
口口口口 |①--②|
③①⑥⑥ |--③-|
②④⑤⑤ |-④--|
口口口口 |⑤-⑥-|
67
⑤口口口 |----|
③④口口 |--①-|
口②口⑥ |②③-④|
①①口口 |⑤-⑥-|
68
⑥⑤①① |①--②|
⑤⑥②② |--③-|
④④口口 |-④--|
③③口口 |⑤-⑥-|
69
口口⑥⑤ |----|
口口④③ |--①-|
口口②⑥ |②③-④|
口口①① |⑤-⑥-|
70
②①口口 |①--②|
④④⑤⑥ |--③-|
①②口口 |-④--|
③③口口 |⑤-⑥-|
71
⑤⑥口口 |----|
③④口口 |--①-|
⑥②口口 |②③-④|
①①口口 |⑤-⑥-|
72
⑤⑤③④ |①--②|
⑥⑥②② |--③-|
口口④③ |-④--|
口口①① |⑤-⑥-|
73
口口④⑤ |----|
口口口口 |--①-|
口口口① |②③-④|
③②⑥① |⑤-⑥-|
74
②⑥⑥④ |①--②|
①①①② |--③-|
③②③④ |-④--|
④⑤⑤③ |⑤-⑥-|
75
口口口口 |①--②|
③①①口 |--③-|
口②②③
口口口口

⑤口⑦⑤
口⑧⑧④
口口口口 |④⑤-⑥|
口⑥⑥口 |⑦-⑧-|
76
④③④③ |①--②|
③⑥⑥④ |--③-|
①②①② |-④--|
①⑤⑤② |⑤-⑥-|
77
⑤⑧⑧② |①--②|
②⑦⑦③ |--③-|
①③④① |④⑤-⑥|
③⑥⑥④ |⑦-⑧-|
78
口⑥口① |①--②|
①④④② |--③-|
③③③④ |-④--|
②⑤⑤⑤ |⑤-⑥-|
79
①口⑤① |①--②|
③⑧⑦④ |--③-|
口②②③ |④⑤-⑥|
口⑥⑥口 |⑦-⑧-|
80
④③④③ |①--②|
③⑥⑥④ |--③-|
①②①② |-④--|
①⑤⑤② |⑤-⑥-|
81
③②口② |①--②|
⑤⑥⑦⑧ |--③-|
③口口④ |-④--|
①口④① |⑤⑥⑦⑧|
82
口①①口 |①---|
口口口口 |----|
口口口口 |----|
口口口口 |----|


不确定度: 0

タグ:

+ タグ編集
  • タグ:

このサイトはreCAPTCHAによって保護されており、Googleの プライバシーポリシー利用規約 が適用されます。

最終更新:2012年11月27日 22:17