ちょうどいいとこにいたい
たむらぱん

BASIC

Level: 2
BPM: 179
Notes: 193

1
口口口口 |----|
口口口口 |----|
口口口口 |----|
口口口口 |----|
2
口口口口 |①---|
口口口口 |----|
口口口口 |----|
①口口口 |----|
3
口口口口 |①---|
口口口口 |----|
口口口口 |----|
口口口① |----|
4
口口口口 |①---|
口口口口 |----|
①口口口 |----|
口口口口 |----|
5
口口口口 |①---|
口口口口 |----|
口口口① |----|
口口口口 |----|
6
口口口口 |①---|
口口口口 |----|
口①口口 |----|
口口口口 |----|
7
口口口口 |①---|
口口口口 |----|
口口①口 |----|
口口口口 |----|
8
口口口口 |①---|
口①口口 |----|
口口口口 |----|
口口口口 |----|
9
口口口口 |①---|
口口①口 |----|
口口口口 |----|
口口口口 |----|
10
口口口口 |①---|
口口口口 |----|
①口口口 |----|
口口口口 |----|
11
口口口口 |①---|
口口口口 |----|
口口口① |----|
口口口口 |----|
12
口口口口 |①---|
①口口口 |----|
口口口口 |----|
口口口口 |----|
13
口口口口 |①---|
口口口① |----|
口口口口 |----|
口口口口 |----|
14
口口口口 |①---|
口口口口 |----|
口口口口 |②---|
口①②口 |----|
15
口③③口 |①---|
口②②口 |②---|
口①①口 |③---|
口口口口 |----|
16
口口口口 |①---|
口口口口 |----|
口口口口 |②---|
①口口② |----|
17
③口口③ |①---|
②口口② |②---|
①口口① |③---|
口口口口 |----|
18
口口口口 |①---|
口口口口 |----|
①②口口 |②---|
口口口口 |----|
19
口口口口 |①---|
口口口口 |----|
口口①② |②---|
口口口口 |----|
20
口口口口 |①---|
口①②口 |②---|
③口口口 |----|
口口口口 |③---|
21
口口口口 |----|
口口口口 |①---|
口口口① |----|
口②②口 |②---|
22
口口口口 |----|
口口口口 |----|
口口口口 |----|
口口口口 |----|
23
口口口口 |①---|
①②口口 |----|
口口口口 |②---|
口口口口 |----|
24
口口口口 |①---|
口口①② |----|
口口口口 |②---|
口口口口 |----|
25
口口口口 |①---|
口口口口 |----|
①②口口 |②---|
口口口口 |----|
26
口口口口 |①---|
口口口口 |----|
口口①② |②---|
口口口口 |----|
27
口口口口 |①---|
口①口口 |----|
口口口口 |----|
口口口口 |----|
28
口口口口 |①---|
口口口口 |----|
口口①口 |----|
口口口口 |----|
29
口口口口 |①---|
口口口口 |----|
①口口② |②---|
口口口口 |----|
30
口口口口 |①---|
①口口② |----|
口口口口 |②---|
口口口口 |----|
31
口口口口 |①---|
①②口口 |----|
口口口口 |②---|
口口口口 |----|
32
口口口口 |①---|
口口①② |----|
口口口口 |②---|
口口口口 |----|
33
口口口口 |①---|
口口口口 |----|
①②口口 |②---|
口口口口 |----|
34
口口口口 |①---|
口口口口 |----|
口口①② |②---|
口口口口 |----|
35
口口口口 |①---|
口①口口 |----|
口口口口 |----|
口口口口 |----|
36
口口口口 |①---|
口口口口 |----|
口口①口 |----|
口口口口 |----|
37
口口口口 |①---|
口口口口 |----|
①口口② |②---|
口口口口 |----|
38
口口口口 |①---|
①口口② |----|
口口口口 |②---|
口口口口 |----|
39
口口口口 |①---|
口口口口 |----|
口①①口 |----|
口口口口 |----|
40
口口口口 |①---|
口口口口 |----|
口口口口 |----|
口①①口 |----|
41
口口口口 |①---|
口口口口 |----|
①口口① |----|
口口口口 |----|
42
口口口口 |①---|
①口口① |----|
口口口口 |----|
口口口口 |----|
43
口口口口 |----|
口①①口 |①---|
口口口口 |----|
口口口口 |----|
44
口口口口 |①---|
口口口口 |----|
①口口① |②---|
②口口② |----|
45
口口口口 |①---|
口口口口 |----|
②口口② |②---|
口①①口 |----|
46
口③③口 |①---|
口②②口 |②---|
口①①口 |③---|
口口口口 |----|
47
口口口口 |①---|
口口口口 |----|
口口口口 |②---|
口①②口 |----|
48
口③③口 |①---|
口②②口 |②---|
口①①口 |③---|
口口口口 |----|
49
口口口口 |①---|
口口口口 |----|
口口口口 |②---|
①口口② |----|
50
③口口③ |①---|
②口口② |②---|
①口口① |③---|
口口口口 |----|
51
口口口口 |①---|
口口口口 |----|
①②口口 |②---|
口口口口 |----|
52
口口口口 |①---|
口口口口 |----|
口口①② |②---|
口口口口 |----|
53
口口口口 |①---|
①口口② |----|
口口口口 |②---|
口口口口 |----|
54
口③③口 |①---|
口②②口 |②---|
口①①口 |③---|
口口口口 |----|
55
口口口口 |①---|
口口口口 |----|
口口口口 |②---|
口①②口 |----|
56
口③③口 |①---|
口②②口 |②---|
口①①口 |③---|
口口口口 |----|
57
口口口口 |①---|
口口口口 |----|
口口口口 |②---|
①口口② |----|
58
③口口③ |①---|
②口口② |②---|
①口口① |③---|
口口口口 |----|
59
口口口口 |①---|
口口口口 |----|
①②口口 |②---|
口口口口 |----|
60
口口口口 |①---|
口口口口 |----|
口口①② |②---|
口口口口 |----|
61
口口口口 |①---|
口①②口 |②---|
③口口口 |----|
口口口口 |③---|
62
口口口口 |----|
口口口口 |①---|
口口口① |----|
口②②口 |②---|
63
口口口口 |----|
口口口口 |----|
口口口口 |----|
口口口口 |----|
64
①②口口 |----|
口口口口 |①---|
口口口口 |②---|
口口口口 |----|
65
口口口口 |----|
口口②① |①---|
口口口口 |②---|
口口口口 |----|
66
口口口口 |----|
口口口口 |①---|
①②口口 |②---|
口口口口 |----|
67
口口口口 |----|
口口口口 |①---|
口口口口 |②---|
口③②① |③---|
68
口口②① |----|
口口口口 |①---|
口口口口 |②---|
口口口口 |----|
69
口口口口 |----|
①②口口 |①---|
口口口口 |②---|
口口口口 |----|
70
口口口口 |----|
口口口口 |①---|
口口②① |②---|
口口口口 |----|
71
口口口口 |----|
口口口口 |①---|
口口口口 |②---|
①②③口 |③---|
72
①②口口 |----|
口口口口 |①---|
口口口口 |②---|
口口口口 |----|
73
口口口口 |----|
口口②① |①---|
口口口口 |②---|
口口口口 |----|
74
口口口口 |----|
口口口口 |①---|
①②口口 |②---|
口口口口 |----|
75
口口口口 |----|
口口口口 |①---|
口口口口 |②---|
口③②① |③---|
76
口口②① |----|
口口口口 |①---|
口口口口 |②---|
口口口口 |----|
77
口口口口 |----|
①②口口 |①---|
口口口口 |②---|
口口口口 |----|
78
口口口口 |----|
口口口口 |①---|
口口②① |②---|
口口口口 |----|
79
口口口口 |----|
口口口口 |①---|
口口口口 |②---|
①②③口 |③---|
80
口口口口 |①---|
口口口口 |----|
口①口口 |----|
口口口口 |----|
81
口口口口 |①---|
口口口口 |----|
口口①口 |----|
口口口口 |----|
82
口口口口 |①---|
口①口口 |----|
口口口口 |----|
口口口口 |----|
83
口口口口 |①---|
口口①口 |----|
口口口口 |----|
口口口口 |----|
84
口口口口 |①---|
口口口口 |----|
①②③口 |②---|
口口口口 |----③-|
85
口口口口 |----|
口口口口 |----|
口口口口 |----|
口口口口 |----|
86
口口口口 |----|
口口口口 |----|
口口口口 |----|
口①①口 |--①---|
87
口口口口 |----|
口②②口 |①---|
口①①口 |----|
口口口口 |----②-|


不确定度: 0

最終更新:2012年11月23日 01:30