ちょうどいいとこにいたい
たむらぱん

ADVANCED

Level: 6
BPM: 179
Notes: 386

1
口口口口 |----|
口口口口 |----|
口口口口 |----|
口口口口 |----|
2
口口口口 |①---|
⑤③口④ |②---|
①口口② |③---④-|
口口口口 |⑤---|
3
口口口口 |①---|
④口口⑤ |②---③-|
①③口② |----④-|
口口口口 |⑤---|
4
口口口口 |①---|
⑤③口④ |②---|
①口口② |③---④-|
口口口口 |⑤---|
5
口口口口 |①---|
④口口⑤ |②---③-|
①③口② |----④-|
口口口口 |⑤---|
6
④口口口 |①---|
口③口口 |②---|
②口口口 |③---|
口①①口 |④---|
7
口③口口 |----|
口口②口 |①---|
口①口口 |②---|
口口口口 |③---|
8
口口③口 |----|
口口口② |①---|
口口①口 |②---|
口口口口 |③---|
9
口口口口 |----|
③口口③ |①---|
口②②口 |②---|
口①①口 |③---|
10
③口口口 |----|
口②口口 |①---|
①口口口 |②---|
口口口口 |③---|
11
口③口口 |----|
口口②口 |①---|
口①口口 |②---|
口口口口 |③---|
12
口口③口 |----|
口口口② |①---|
口口①口 |②---|
口口口口 |③---|
13
口口口口 |----|
③口口③ |①---|
口②②口 |②---|
口①①口 |③---|
14
口口口口 |①---|
口⑥口口 |②---③-|
②④⑤③ |----④-|
口口口① |⑤---⑥-|
15
③口口③ |①---|
②口①② |②---|
口口口口 |③---|
口口口口 |----|
16
口口口口 |①---|
口⑥口口 |②---③-|
②④⑤③ |----④-|
口口口① |⑤---⑥-|
17
③口口③ |①---|
②口①② |②---|
口口口口 |③---|
口口口口 |----|
18
口口口口 |①---|
⑤口口⑤ |②---③-|
口③④口 |④---|
①口口② |⑤---|
19
①口口① |①---|
口②③口 |②---③-|
口口口口 |----|
口口口口 |----|
20
口口口④ |①---|
口③口口 |②---|
口口口② |③---|
口①口口 |④---|
21
口口④口 |①---|
③口口口 |②---|
口口②口 |③---|
①口口口 |④---|
22
口口口口 |----|
口口口口 |----|
口口口口 |----|
口口口口 |----|
23
⑧口口口 |①---②-|
⑥口口⑦ |③---④-|
④口口⑤ |⑤---⑥-|
②口①③ |⑦---⑧-|
24
口口口① |①---②-|
口②③口 |③---④-|
口④口口 |----|
口口口口 |----|
25
⑧口口口 |①---②-|
⑥口口⑦ |③---④-|
④口口⑤ |⑤---⑥-|
②口①③ |⑦---⑧-|
26
口口口① |①---②-|
口②③口 |③---④-|
口④口口 |----|
口口口口 |----|
27
口口口口 |①---|
口口口口 |②---③-|
④口①口 |----|
③②口口 |④---|
28
口口口口 |①---②-|
口口④口 |③---④-|
口①口口 |----|
口⑤②③ |----⑤-|
29
口⑥⑦口 |①---②-|
⑧④⑤口 |③---④-|
口②③口 |⑤---⑥-|
口口①口 |⑦---⑧-|
30
口口口口 |①---|
口口口① |②---③-|
口口③口 |----|
口②口口 |----|
31
⑥口口口 |①---|
④口口⑤ |②---|
口口口③ |③---④-|
口口①② |⑤---⑥-|
32
口口口口 |----①-|
口①②口 |②---③-|
口③口口 |----|
口口口口 |----|
33
⑧口口口 |①---②-|
⑥口口⑦ |③---④-|
④口口⑤ |⑤---⑥-|
②口①③ |⑦---⑧-|
34
口口口① |①---②-|
口②③口 |③---④-|
口④口口 |----|
口口口口 |----|
35
口口口口 |①---|
口口口口 |②---③-|
口口①口 |----|
③②口口 |----|
36
口口口口 |①---|
口②③口 |②---③-|
口①口口 |----|
口④口口 |----④-|
37
口⑥口口 |①---②-|
口④⑤口 |③---④-|
口②③口 |⑤---⑥-|
口口①口 |----|
38
口口口口 |①---|
口口口① |②---③-|
②口③④ |④---|
口口口口 |----|
39
口口口口 |----|
口口口口 |①---|
①②③口 |②---|
口口口口 |③---|
40
口口口口 |----|
口③②① |①---|
口口口口 |②---|
口口口口 |③---|
41
①②③口 |----|
口口口口 |①---|
口口口口 |②---|
口口口口 |③---|
42
口口口① |①---|
口②口口 |----|
口口口口 |②---|
口口口口 |----|
43
口口口口 |----|
口口口口 |①---|
口口口口 |②---|
①②③口 |③---|
44
口口口口 |①---|
口口口③ |----|
口口口② |②---|
口口口① |③---|
45
④③②① |①---|
口口口口 |②---|
口口口口 |③---|
口口口口 |④---|
46
口口口口 |①---|
①口口口 |②---|
②口口口 |③---|
③口口口 |----|
47
口口口口 |①---|
口⑥口口 |②---③-|
②④⑤③ |----④-|
口口口① |⑤---⑥-|
48
③口口③ |①---|
②口①② |②---|
口口口口 |③---|
口口口口 |----|
49
口口口口 |①---|
口⑥口口 |②---③-|
②④⑤③ |----④-|
口口口① |⑤---⑥-|
50
③口口③ |①---|
②口①② |②---|
口口口口 |③---|
口口口口 |----|
51
口口口口 |①---|
⑤口口⑤ |②---③-|
口③④口 |④---|
①口口② |⑤---|
52
①口口① |①---|
口②③口 |②---③-|
口口口口 |----|
口口口口 |----|
53
口口①口 |①---|
口口②口 |②---③-|
⑥③④口 |④---|
口口⑤口 |⑤---⑥-|
54
③口口③ |①---|
②口口② |②---|
口口口① |③---|
口口口口 |----|
55
口口口口 |①---|
口⑥口口 |②---③-|
②④⑤③ |----④-|
口口口① |⑤---⑥-|
56
③口口③ |①---|
②口①② |②---|
口口口口 |③---|
口口口口 |----|
57
口口口口 |①---|
口⑥口口 |②---③-|
②④⑤③ |----④-|
口口口① |⑤---⑥-|
58
③口口③ |①---|
②口①② |②---|
口口口口 |③---|
口口口口 |----|
59
口口口口 |①---|
⑤口口⑤ |②---③-|
口③④口 |④---|
①口口② |⑤---|
60
①口口① |①---|
口②③口 |②---③-|
口口口口 |----|
口口口口 |----|
61
口口口④ |①---|
口③口口 |②---|
口口口② |③---|
口①口口 |④---|
62
口口④口 |①---|
③口口口 |②---|
口口②口 |③---|
①口口口 |④---|
63
口口口口 |----|
口口口口 |----|
口口口口 |----|
口口口口 |----|
64
口口口口 |----|
①口口② |①---|
①口口② |②---|
口口口口 |----|
65
口口口口 |----|
口①②口 |①---|
口①②口 |②---|
口口口口 |----|
66
口口口口 |----|
口口口口 |①---|
口口口口 |②---|
①①②② |----|
67
①①②② |----|
口③③口 |①---|
口口口口 |②---|
口口口口 |③---|
68
口口口口 |----|
①口口② |①---|
①口口② |②---|
口口口口 |----|
69
口口口口 |----|
口①②口 |①---|
口①②口 |②---|
口口口口 |----|
70
口口口口 |----|
口口口口 |①---|
口口口口 |②---|
①①②② |----|
71
①①②② |----|
口③③口 |①---|
口口口口 |②---|
口口口口 |③---|
72
口口口口 |----|
①口口② |①---|
①口口② |②---|
口口口口 |----|
73
口口口口 |----|
口①②口 |①---|
口①②口 |②---|
口口口口 |----|
74
口口口口 |----|
口口口口 |①---|
口口口口 |②---|
①①②② |----|
75
①①②② |----|
口③③口 |①---|
口口口口 |②---|
口口口口 |③---|
76
口口口口 |----|
①口口② |①---|
①口口② |②---|
口口口口 |----|
77
口口口口 |----|
口①②口 |①---|
口①②口 |②---|
口口口口 |----|
78
口口口口 |----|
口口口口 |①---|
口口口口 |②---|
①①②② |----|
79
①①②② |----|
③口口③ |①---|
口口口口 |②---|
口口口口 |③---|
80
④口口口 |①---|
口③口口 |②---|
②口口口 |③---|
口①①口 |④---|
81
口③口口 |----|
口口②口 |①---|
口①口口 |②---|
口口口口 |③---|
82
口口③口 |----|
口口口② |①---|
口口①口 |②---|
口口口口 |③---|
83
口口口口 |----|
③口口③ |①---|
口②②口 |②---|
口①①口 |③---|
84
口①①口 |①---|
③口口口 |----|
口口口② |②---|
口口口口 |----③-|
85
口口口口 |----|
口口口口 |----|
口口口口 |----|
口口口口 |----|
86
口口口口 |----|
口口口口 |----|
口口口口 |----|
①①①① |--①---|
87
口口口口 |----|
②②②② |①---|
①①①① |----|
口口口口 |----②-|


不确定度: 0

最終更新:2012年11月23日 01:30