ちょうどいいとこにいたい
たむらぱん

EXTREME

Level: 9
BPM: 179
Notes: 713

1
口口口口 |----|
口口口口 |----|
口口口口 |----|
口口口口 |----|
2
⑤口口⑤ |①---|
口③④口 |②---|
②口口② |③---④-|
口①①口 |⑤---|
3
⑤口口⑤ |①---|
口③④口 |②---③-|
②口口② |----④-|
口①①口 |⑤---|
4
⑤口口⑤ |①---|
口③④口 |②---|
②口口② |③---④-|
口①①口 |⑤---|
5
⑤口口⑤ |①---|
口③④口 |②---③-|
②口口② |----④-|
口①①口 |⑤---|
6
⑤③②口 |①---|
口口口口 |②---|
口口④口 |③---④-|
①口④① |⑤---|
7
口口口口 |①---|
口⑤③② |②---|
④①口口 |③---④-|
④①口口 |⑤---|
8
口口口② |①---|
口口口口 |②---|
口口口①
口口口①

口⑤③口
口口口口
④④口口 |③---④-|
口口口⑥ |⑤---⑥-|
9
口口口口 |①---②-|
⑦⑤③口 |③---④-|
⑦⑤③① |⑤---⑥-|
⑥④②⑧ |⑦---⑧-|
10
⑤③②口 |①---|
口口口① |②---|
口口④① |③---④-|
口口④口 |⑤---|
11
口口口口 |①---|
口⑤③② |②---|
④①口口 |③---④-|
④①口口 |⑤---|
12
口⑤③② |①---|
口口口口 |②---|
④④口① |③---④-|
口口口① |⑤---|
13
口口口口 |①---|
⑤③②口 |②---|
口口④④ |③---④-|
口口①① |⑤---|
14
⑥口⑤④ |①---|
口③②① |②---③-|
④④口口 |----④-|
①①口口 |⑤---⑥-|
15
口①口口 |①---|
口口②③ |②---|
口口④④ |③---④-|
口口①① |----|
16
口③②① |①---|
⑥口⑤④ |②---③-|
④④口口 |----④-|
①①口口 |⑤---⑥-|
17
口口②③ |①---|
口①口口 |②---|
口口④④ |③---④-|
口口①① |----|
18
口口⑤③ |①---|
口口②① |②---|
④④口口 |③---④-|
①①口口 |⑤---|
19
①口口口 |①---|
②③口口 |②---③-|
口口④④ |----④-|
口口①① |----|
20
①口口② |①---|
③口口④ |②---|
④④口口 |③---|
②②口口 |④---|
21
口②①口 |①---|
口④③口 |②---|
口口④④ |③---|
口口②② |④---|
22
口③④口 |①---②-|
⑤口口⑤ |----③-|
口口口口 |④---|
①口口② |⑤---|
23
⑧口口口 |①---②-|
⑥口口⑦ |③---④-|
④口口⑤ |⑤---⑥-|
②口①③ |⑦---⑧-|
24
口口口① |①---②-|
口②③口 |③---④-|
口④口口 |----|
口口口口 |----|
25
⑧口口口 |①---②-|
⑥口口⑦ |③---④-|
④口口⑤ |⑤---⑥-|
②口①③ |⑦---⑧-|
26
口口口① |①---②-|
口②③口 |③---④-|
口④口口 |----|
口口口口 |----|
27
口①①口 |①---|
口②②口 |②---③-|
口③③口 |----|
④口口④ |④---|
28
④口口④ |①---②-|
口②③口 |③---④-|
①口口① |----|
⑤口口口 |----⑤-|
29
⑥口口⑦ |①---②-|
④⑧口⑤ |③---④-|
②口口③ |⑤---⑥-|
口口口① |⑦---⑧-|
30
口口口口 |①---|
口口①口 |②---③-|
口②口口 |----|
口口③口 |----|
31
口口口口 |①---|
口⑥口口 |②---|
③口④⑤ |③---④-|
①口口② |⑤---⑥-|
32
口③口口 |----①-|
口口①② |②---③-|
口口口口 |----|
口口口口 |----|
33
⑧口口口 |①---②-|
⑥口口⑦ |③---④-|
④口口⑤ |⑤---⑥-|
②口①③ |⑦---⑧-|
34
口口口① |①---②-|
口②③口 |③---④-|
口④口口 |----|
口⑤口口 |----⑤-|
35
口口口口 |①---|
③口口③ |②---③-|
②④口② |----|
口口①口 |----④-|
36
③口口③ |①---|
②口口② |②---③-|
口口①口 |----|
④口口口 |----④-|
37
⑥口口口 |①---②-|
④口口⑤ |③---④-|
②口口③ |⑤---⑥-|
口口口① |----|
38
口口口口 |①---|
口口①口 |②---③-|
口③④口 |④---|
②口口② |----|
39
口口口口 |----|
口口口口 |①---|
①口③口 |②---|
口②口口 |③---|
40
口口②口 |----|
口①口③ |①---|
口口口口 |②---|
口口口口 |③---|
41
①口口口 |----|
①②口口 |①---|
口②③口 |②---|
口口③口 |③---|
42
口②②口 |①---|
口口口① |----|
口口口① |②---|
口口口口 |----|
43
口口口口 |----|
①①②② |①---|
口口③③ |②---|
口口口口 |③---|
44
③口口口 |①---|
②口口口 |----|
①①口口 |②---|
口口口口 |③---|
45
口①②③ |①---|
口口口④ |②---|
口口口口 |③---|
口口口口 |④---|
46
口③④口 |①---|
口⑤⑥口 |②---|
②⑦⑧② |③-④-⑤-|
口①①口 |⑥-⑦-⑧-|
47
口④⑤口 |①---|
口口口口 |②---③-|
②口口③ |----④-|
①⑥口① |⑤---⑥-|
48
③口口③ |①---|
②③③② |②---|
口②②口 |③---|
口口①口 |----|
49
口⑥口口 |①---|
口口口口 |②---③-|
②口口③ |----④-|
①④⑤① |⑤---⑥-|
50
口口①口 |①---|
口②②口 |②---|
②③③② |③---|
③口口③ |----|
51
①口口② |①---|
①口口② |②---③-|
口⑤⑤口 |④---|
⑤③④⑤ |⑤---|
52
口②③口 |①---|
②①①③ |②---③-|
①口口① |----|
口口口口 |----|
53
口⑥口口 |①---|
⑤③④⑤ |②---③-|
②口口② |④---|
①口口① |⑤---⑥-|
54
⑤口①⑤ |①---|
④③③④ |②---|
口②②口 |③---④-|
口⑥⑥口 |⑤---⑥-|
55
口④⑤口 |①---|
口口口口 |②---③-|
②口口③ |----④-|
①⑥口① |⑤---⑥-|
56
③口口③ |①---|
②③③② |②---|
口②②口 |③---|
口口①口 |----|
57
口⑥口口 |①---|
口口口口 |②---③-|
②口口③ |----④-|
①④⑤① |⑤---⑥-|
58
口口①口 |①---|
口②②口 |②---|
②③③② |③---|
③口口③ |----|
59
①口口② |①---|
①口口② |②---③-|
口⑤⑤口 |④---|
⑤③④⑤ |⑤---|
60
口口口口 |①---|
②①①③ |②---③-|
①口口①
口口口口

口④④口
口口口口
口口⑦⑧ |④---⑤-|
口口⑤⑥ |⑥-⑦-⑧-|
61
①④口口 |①---|
②③口口 |②---|
④④口口 |③---|
②②口口 |④---|
62
口口①④ |①---|
口口②③ |②---|
口口④④ |③---|
口口②② |④---|
63
②②口口 |①---②-|
④④口口 |----③-|
①口口⑤ |④---|
口③口⑤ |⑤---|
64
③③口口 |①---|
口口②② |②---|
①②③④ |③---|
①②③④ |④---|
65
③③口口 |①---|
口口②② |②---|
①②③④ |③---|
①②③④ |④---|
66
③③口口 |①---|
口口②② |②---|
①②③④ |③---|
①②③④ |④---|
67
③③口口 |①---|
口④②口 |②---|
①②③④ |③---|
①②③④ |④---|
68
③③口口 |①---|
口口②② |②---|
①②③④ |③---|
①②③④ |④---|
69
③③口口 |①---|
口口②② |②---|
①②③④ |③---|
①②③④ |④---|
70
③③口口 |①---|
口口②② |②---|
①②③④ |③---|
①②③④ |④---|
71
④⑤①① |①---②-|
口口口口 |③-④-⑤-|
②③口口
口口口口

口口⑨⑩
⑥⑥口口
口口⑦⑧ |⑥---⑦-|
口口口口 |⑧-⑨-⑩-|
72
③③口口 |①---|
口口②② |②---|
①②③④ |③---|
①②③④ |④---|
73
③③口口 |①---|
口口②② |②---|
①②③④ |③---|
①②③④ |④---|
74
③③口口 |①---|
口口②② |②---|
①②③④ |③---|
①②③④ |④---|
75
③③口口 |①---|
口④②口 |②---|
①②③④ |③---|
①②③④ |④---|
76
③③口口 |①---|
口口②② |②---|
①②③④ |③---|
①②③④ |④---|
77
③③口口 |①---|
口口②② |②---|
①②③④ |③---|
①②③④ |④---|
78
③③口口 |①---|
口口②② |②---|
①②③④ |③---|
①②③④ |④---|
79
③口口口 |①---|
④口②口 |②---|
①②③④ |③---|
①②③④ |④---|
80
⑤③②① |①---|
⑤③②① |②---|
口口④④ |③---④-|
口口口口 |⑤---|
81
⑤⑤③③ |①---|
口口②② |②---|
④④口口 |③---④-|
①①口口 |⑤---|
82
口⑤⑤口 |①---|
②②口口 |②---|
口口③③ |③---④-|
④④①① |⑤---|
83
①口口② |①-②-③-|
③⑦⑧④ |④-⑤-⑥-|
⑤⑨⑩⑥ |⑦-⑧-⑨-|
口口口口 |⑩---|
84
②口口③ |①---|
口口口口 |----|
口口口口 |②---|
口①①口 |----③-|
85
⑨⑩口口 |----①-|
口口口口 |②-③-④-|
①②⑤⑥ |⑤-⑥-⑦-|
③④⑦⑧ |⑧-⑨-⑩-|
86
口口③④ |①-②-③-|
①②⑤⑥ |④-⑤-⑥-|
口⑦⑧口 |⑦-⑧-⑨-|
⑪⑨⑩⑪ |⑩-⑪---|
87
③口口③ |----|
口口口口 |①---|
①口口① |----|
口②②口 |②---③-|
88
口口口口 |----|
口①口口 |----|
口口②口 |①②③---|
口③口口 |----|


不确定度: 0

最終更新:2012年11月23日 01:29