チャクラ
BENNIE K

BASIC

Level: 3
BPM: 146-150
Notes: 228

BPM: 146
1
口口口口 |----|
口口口口 |----|
口口口口 |----|
口口口口 |----|
2
口口口口 |----|
口口口口 |----|
口口口口 |----|
口口口口 |----|
3
口①①口 |①---|
口②②口 |②---|
③④④③ |③---|
口口口口 |--④-|

BPM: 148
4
③口口③ |--①-|
②口口② |--②-|
口口口口 |----|
口①①口 |③---|

BPM: 150
5
口口口口 |①---|
口①口口 |----|
口口口口 |----|
口口口口 |----|
6
口口口口 |①---|
口口①口 |----|
口②②口 |②---|
口口口口 |----|

BPM: 151
7
口①①口 |①---|
口②②口 |②---|
③④④③ |③---|
口口口口 |--④-|

BPM: 152
8
③口口③ |--①-|
②口口② |--②-|
口口口口 |----|
口①①口 |③---|
9
口口口口 |①---|
口①口口 |----|
口②口口 |②---|
口口口口 |----|

BPM: 150
10
口口口口 |①---|
口口①口 |----|
口口②口 |②---|
口口③口 |③---|
11
口①①口 |①---|
口②②口 |②---|
③④④③ |③---|
口口口口 |--④-|
12
③口口③ |--①-|
②口口② |--②-|
口口口口 |----|
口①①口 |③---|
13
口①口口 |①---|
口②口口 |②---|
口③口口 |③---|
口④口口 |④---|
14
口口①口 |①---|
口口②口 |②---|
口口③口 |③---|
口口④口 |④---|
15
口①①口 |①---|
口②②口 |②---|
③④④③ |③---|
口口口口 |--④-|
16
③口口③ |--①-|
②口口② |--②-|
口口口口 |----|
口①①口 |③---|
17
口口口口 |①---|
口①口口 |----|
口口口口 |----|
口口口口 |----|
18
口口口口 |①---|
口口①口 |----|
口口口口 |----|
口口口口 |----|
19
口口口口 |①---|
口口口口 |②---|
①②③④ |③---|
口口口口 |④---|
20
口口口口 |①---|
口③②① |②---|
口口口口 |③---|
口口口口 |----|
21
口口口口 |①---|
口口口口 |②---|
④③②① |③---|
口口口口 |④---|
22
口口口口 |①---|
①②③口 |②---|
口口口口 |③---|
口口口口 |----|
23
口①①口 |①---|
口口口口 |----|
口口口口 |----|
口口口口 |----|
24
口口口口 |①---|
口①①口 |----|
口口口口 |----|
口口口口 |----|
25
口口口口 |①---|
口口口口 |----|
②①①② |②---|
口口口口 |----|
26
口口口口 |①---|
口口口口 |----|
口口口口 |②---|
②①①② |----|
27
①②口口 |①---|
③④口口 |②---|
口口口口 |③---|
口口口口 |④---|
28
口口①② |----|
口口③口 |①---|
口口口口 |②---|
口口口口 |③---|
29
口口口口 |----|
口口口口 |①---|
①②③口 |②---|
口口口口 |③---|
30
口口口口 |①---|
口口口口 |②---|
口口口① |③---|
口④③② |④---|
31
口口口口 |----|
①口口口 |①---|
口口口口 |----|
口口口口 |----|
32
口口口口 |①---|
口④④① |②---|
口②③口 |③---|
口口口口 |④---|
33
①②③④ |①---|
口口口口 |②---|
口口口口 |③---|
口口口口 |④---|
34
口口口口 |①---|
口①①口 |②---|
口②②口 |③---|
口③③口 |----|
35
④③②① |①---|
口口口口 |②---|
口口口口 |③---|
口口口口 |④---|
36
口口口口 |①---|
①②③④ |②---|
口口口口 |③---|
口口口口 |④---|
37
口口口口 |①---|
口口口口 |----|
口①②口 |②---|
口口口口 |----|
38
口口口口 |①---|
口口口口 |----|
口③③口 |②---|
①②②口 |③---|
39
①②③口 |①---|
口口口口 |--②-|
口口口口 |----|
口口口口 |③---|
40
口口口口 |①---|
口③②① |②---|
口口口口 |③---|
口口口口 |----|
41
口口口口 |----|
口口口口 |----|
口口口口 |----|
口口口口 |----|
42
口口口口 |①---|
③口口③ |②---|
②口口② |③---|
口①①口 |----|
43
口口口口 |----|
口口口口 |----|
口口口口 |----|
口口口口 |----|
44
口①①口 |①---|
口②②口 |②---|
③④④③ |③---|
口口口口 |--④-|
45
③口口③ |--①-|
②口口② |--②-|
口口口口 |----|
口①①口 |③---|
46
口口口口 |----|
口①口口 |①---|
口②口口 |②---|
口③口口 |③---|
47
④口口口 |①---|
口口①口 |②---|
口口②口 |③---|
口口③口 |④---|
48
口口口① |①---|
②口口③ |②---|
口口口口 |③---|
口④④口 |④---|
49
口③③口 |①---|
④②②④ |②---|
口①①口 |③---|
口口口口 |④---|
50
①口口① |①---|
口口口口 |----|
口口口口 |----|
口口口口 |----|
51
口口口口 |①---|
口口口口 |②---|
①②③④ |③---|
口口口口 |④---|
52
口口口口 |----|
口①②口 |①---|
口③口口 |②---|
口口口口 |③---|
53
口口口口 |①---|
口口口口 |②---|
口口①口 |③---|
口②③④ |④---|
54
①③口口 |----|
②口口口 |①---|
口口口口 |②---|
口口口口 |③---|
55
口口②口 |①---|
口①③口 |②---|
口口④口 |③---|
口口口口 |④---|
56
口口口口 |①---|
口口口口 |②---|
③②口① |③---|
④口口口 |④---|
57
口④④口 |①---|
口③③口 |②---|
口②②口 |③---|
口①①口 |④---|
58
①口口① |①---|
口口口口 |----|
口口口口 |----|
口口口口 |----|
59
口口口口 |①---|
口①①口 |----|
口口口口 |----|
口口口口 |----|


不确定度: 0

最終更新:2012年11月23日 01:29