チャクラ
BENNIE K

ADVANCED

Level: 6
BPM: 146-150
Notes: 320

BPM: 146
1
口口口口 |----|
口口口口 |----|
口口口口 |----|
口口口口 |----|
2
口①口口 |----|
口口口口 |----|
口口口口 |----|
口口口口 |--①-|
3
口口⑤口 |①-②-|
⑥④口① |③---|
②口④口 |④---|
口口③口 |⑤-⑥-|

BPM: 148
4
口口口口 |①-②-|
口口③口 |--③-|
口③口①
口②口口

口口口口
④口口口
口口口⑤ |--④-|
口口口口 |⑤---|

BPM: 150
5
①②③口 |①---|
口口口口 |--②-|
口口口口 |----|
口口口口 |③---|
6
口④口① |①---|
口口口① |-②--|
②口口③ |③---|
口口口口 |--④-|

BPM: 151
7
口口⑤口 |①-②-|
⑥④口① |③---|
②口④口 |④---|
口口③口 |⑤-⑥-|

BPM: 152
8
口口口口 |①-②-|
口口③口 |--③-|
口③口①
口②口口

口口口口
④口口口
口口口⑤ |--④-|
口口口口 |⑤---|
9
①②口口 |①---|
口口③口 |②--③|
口口口口 |----|
口口口口 |----|

BPM: 150
10
口④口口 |①---|
口口口口 |--②-|
口口口口 |--③-|
③②口① |--④-|
11
口口⑤口 |①-②-|
⑥④口① |③---|
②口④口 |④---|
口口③口 |⑤-⑥-|
12
口口口口 |①-②-|
口口③口 |--③-|
口③口①
口②口口

口口口口
④口口口
口口口⑤ |--④-|
口口口口 |⑤---|
13
①②③④ |①---|
口口口④ |②---|
口口口口 |③---|
口口口口 |④---|
14
口⑤口口 |①---|
口口口口 |②---|
口③口口 |③---|
④③②① |④-⑤-|
15
口口⑤口 |①-②-|
⑥④口① |③---|
②口④口 |④---|
口口③口 |⑤-⑥-|
16
口口口口 |①-②-|
口口③口 |--③-|
口③口①
口②口口

⑥口口口
④口口口
口口口⑤ |--④-|
口口口口 |⑤-⑥-|
17
口口①① |①---|
口口③口 |----|
口口③口 |②---|
②②口口 |--③-|
18
②口口口 |①---|
口口口① |----|
口口口① |----|
口口口口 |--②-|
19
口口口口 |①---|
口①口③ |②---|
口口④口 |③-④-|
口⑤口② |⑤---|
20
口①口口 |①-②-|
②口④口 |③-④-|
口③口⑤ |⑤---|
⑥口口口 |--⑥-|
21
口①口③ |①-②-|
④口口⑤ |③---|
口口口口 |④---|
口口②口 |⑤---|
22
口口口口 |①---|
口口③③ |②---|
①②口口 |③---|
口口口④ |--④-|
23
口口口⑤ |①-②-|
口④口口 |③-④-|
③口①口 |----|
口②口口 |--⑤-|
24
口②口口 |①-②-|
③⑤①口 |③-④-|
口④口口 |----|
口口口口 |⑤---|
25
口②②口 |①---|
口口口口 |----|
口口①口 |②---|
口③③口 |③---|
26
①口口① |①---|
口②口口 |--②-|
口口③口 |③---|
口口口口 |----|
27
口④⑤口 |①---|
口口①① |②---|
②②口口 |③---|
口口③③ |④-⑤-|
28
口口口口 |--①-|
①②③口 |②-③-|
口④⑤⑥ |④-⑤-|
口口口口 |⑥---|
29
①②口口 |----|
口口口口 |①-②-|
口口口口 |--③-|
口⑤④③ |④-⑤-|
30
口口口口 |--①-|
①②③口 |②-③-|
口④⑤⑥ |④-⑤-|
口口口口 |⑥---|
31
口口口口 |----|
口①③口 |①--②|
口④②口 |--③-|
⑤口口口 |④-⑤-|
32
口①②口 |--①-|
口③④⑤ |②-③-|
口口口口 |④-⑤-|
口⑥⑥口 |⑥---|
33
①口口② |①---|
口口口口 |②---|
口口口口
口口口口

⑥口口口
口口口口
口④④口 |③-④-|
③口口⑤ |⑤-⑥-|
34
口口口① |①-②-|
②口口③ |③-④-|
④口口⑤ |⑤---|
口口口口 |----|
35
口口④口 |①---|
口③口口 |②---|
口口②口 |③---|
口①口口 |④---|
36
⑤①口⑤ |①---|
④口①④ |②---|
③②口③ |③-④-|
口口②口 |⑤---|
37
口口口口 |①---|
口①②口 |②---|
口③④口 |③---|
口口口口 |④---|
38
④口口④ |①---|
①口口② |②---|
①口口② |③---|
③口口③ |④---|
39
口①口口 |①---|
口②①口 |--②-|
口③②口 |----|
口口③口 |③---|
40
口⑤⑤口 |①---|
②④④② |②---|
①③③① |③--④|
口口口口 |--⑤-|
41
②口口口 |----|
口口口① |----|
口口口口 |--①-|
口口①口 |--②-|
42
口口④④ |①-②-|
口①口口 |③---|
②口口口 |④---|
口口口③ |----|
43
口①口口 |----|
口口口口 |----|
口口口口 |----|
口口口口 |--①-|
44
口口⑤口 |①-②-|
⑥④口① |③---|
②口④口 |④---|
口口③口 |⑤-⑥-|
45
口口口口 |①-②-|
口口③口 |--③-|
口③口①
口②口口

口口口口
④口口口
口口口⑤ |--④-|
口口口口 |⑤---|
46
①②口口 |----|
口③④⑤ |①-②-|
口口口口 |③-④-|
口口⑥口 |⑤-⑥-|
47
口③口口 |①---|
口②口口 |②-③-|
④⑤①口 |--④-|
口口口口 |⑤---|
48
④口③③ |①---|
⑤口①① |②---|
口口口口 |③---|
口口②② |④-⑤-|
49
口口③③ |①---|
口口口口 |②---|
①④④口 |③---|
口口②② |④---|
50
口口口口 |①---|
口①①口 |----|
口口口口 |----|
②口口口 |--②-|
51
①⑤⑤③ |①---|
口口口口 |②-③-|
口口口口 |--④-|
口④④② |⑤---|
52
口口口口 |--①-|
①②口口 |②-③-|
⑥口③④ |④---|
⑤口口口 |⑤-⑥-|
53
②口口③ |--①-|
口口④① |--②-|
口口口⑤ |--③-|
口口口口 |④-⑤-|
54
口口口口 |----|
①口口② |①---|
口④口口 |②---|
口③口口 |③-④-|
55
③口口② |①---|
口①口口 |②---|
口⑤⑤口 |③---|
口④④口 |④-⑤-|
56
④⑤⑥④ |①---|
③①①③ |②-③-|
②口口② |④---|
口口口口 |⑤-⑥-|
57
③口口④ |①---|
口口口口 |②---|
口口口口 |③---|
①口口② |④---|
58
口口口口 |①---|
口①①口 |----|
口口口口 |----|
口口口口 |----|
59
口口口口 |①---|
口口口口 |----|
①①①① |----|
口口口口 |----|


不确定度: 0

最終更新:2012年11月23日 01:29