チャクラ
BENNIE K

EXTREME

Level: 8
BPM: 146-150
Notes: 545

BPM: 146
1
口口口口 |----|
口口口口 |----|
口口口口 |----|
口口口口 |----|
2
口①口口 |----|
口①口口 |----|
口口口口 |----|
口口口口 |--①-|
3
口口口口 |①-②-|
口口①① |③---|
②②③口
口口③口

④⑤口④
口⑤⑥⑥
口口口口 |④---|
口口口口 |⑤-⑥-|

BPM: 148
4
③口口③ |①-②-|
口口口口 |--③-|
①①②口
口口②口

口口口口
⑥口口⑥
⑤口口⑤ |--④-|
④口口④ |⑤-⑥-|

BPM: 150
5
⑥②⑦⑧ |①-②③|
口④①⑨ |④⑤⑥-|
口①⑤口 |⑦⑧⑨-|
⑫⑪③⑩ |⑩-⑪⑫|
6
口②口口 |①②--|
口①③③ |-③--|
③③①口
口口②口

④⑤口口
口⑤口口
口口口口 |④---|
口口口④ |--⑤-|

BPM: 151
7
口口口口 |①-②-|
口口①① |③---|
②②③口
口口③口

④⑤口④
口⑤⑥⑥
口口口口 |④---|
口口口口 |⑤-⑥-|

BPM: 152
8
③口口③ |①-②-|
口口口口 |--③-|
①①②口
口口②口

口口口口
⑥口口⑥
⑤口口⑤ |--④-|
④口口④ |⑤-⑥-|
9
⑧①②⑨ |①②③④|
⑩③④⑪ |⑤⑥-⑦|
口⑤⑥口 |--⑧⑨|
⑦口口⑦ |⑩⑪--|

BPM: 150
10
口①口④ |①-②-|
口②口口 |③-④-|
口③口口
④口口口

⑥⑧⑤口
⑦⑧口口
口口口⑦ |⑤-⑥-|
口⑤口⑥ |⑦-⑧-|
11
口口口口 |①-②-|
口口①① |③---|
②②③口
口口③口

④⑤口④
口⑤⑥⑥
口口口口 |④---|
口口口口 |⑤-⑥-|
12
③口口③ |①-②-|
口口口口 |--③-|
①①②口
口口②口

口口口口
⑥口口⑥
⑤口口⑤ |--④-|
④口口④ |⑤-⑥-|
13
⑩①④⑩ |①-②③|
口⑦⑧口 |④-⑤⑥|
口②⑤口 |⑦⑧⑨-|
⑨③⑥⑨ |⑩---|
14
⑩⑪⑨⑦ |①-②-|
①⑪口② |③④⑤-|
口③④⑤ |⑥⑦⑧⑨|
⑥⑧口⑩ |-⑩⑪-|
15
口口口口 |①-②-|
口口①① |③---|
②②③口
口口③口

④⑤口④
口⑤⑥⑥
口口口口 |④---|
口口口口 |⑤-⑥-|
16
③口口③ |①-②-|
口口口口 |--③-|
①①②口
口口②口

口口口口
⑥口口⑦
⑤口口⑤ |--④-|
④口口④ |⑤-⑥⑦|
17
口②②口 |①---|
口口口口 |②---|
口①①口
口口口口

⑦口口⑧
口③④口
口⑥⑥口 |③④⑤-|
口⑤⑤口 |⑥-⑦⑧|
18
口③③口 |①②③-|
①口口② |----|
口口口口
口口口口

口⑤口口
口④④口
口口口口 |④---|
口口口口 |--⑤-|
19
口口⑥口 |①-②-|
口④⑤① |③---|
②⑤④口 |④-⑤-|
口⑥③口 |⑥---|
20
①②口口 |①-②-|
口③④口 |③-④-|
口口口口
口口口口

口⑥口⑤
口口口口
口口口口 |⑤---|
口口口口 |--⑥-|
21
口口⑥口 |①-②-|
口④⑤① |③---|
②⑤④口 |④-⑤-|
口⑥③口 |⑥---|
22
①②口口 |①-②-|
⑥③④⑤ |③-④-|
⑤④③口 |⑤---|
口口②① |--⑥-|
23
口口③④ |①-②-|
口①②口 |③-④-|
口口口⑤ |----|
口口口⑥ |--⑤⑥|
24
口口口口 |①-②-|
口口口口 |③-④-|
⑤②①口 |----|
④③口口 |⑤---|
25
口口口口 |①---|
口②④① |--②-|
口④③口 |③---|
口口口口 |④---|
26
口①口口 |①---|
口②口① |--②-|
①口③口 |③---|
口口①口 |----|
27
口①①口 |①---|
②⑥⑦③ |②-③-|
④⑧⑨⑤ |④-⑤⑥|
口口口口 |⑦⑧⑨-|
28
①②③口 |--①-|
④⑤⑥口 |②-③-|
口⑥⑦口 |④-⑤-|
口口口口 |⑥-⑦-|
29
口口口口 |①---|
②③口口 |②-③-|
口口口① |--④-|
口⑥⑤④ |⑤-⑥-|
30
①②③口 |--①-|
④⑤⑥口 |②-③-|
口⑥⑦口 |④-⑤-|
口口口口 |⑥-⑦-|
31
②口⑥⑤ |①---|
口口口④ |②--③|
④口口① |--④-|
⑤⑥口③ |⑤-⑥-|
32
口②口口 |--①-|
口①⑦⑤ |②-③-|
③⑥①口 |④-⑤-|
口口④口 |⑥-⑦-|
33
①口②② |①---|
①⑤⑥口 |②---|
口⑥⑤④ |③-④-|
③③口④ |⑤-⑥-|
34
口①④③ |①-②-|
口⑤口② |③-④-|
②口⑤口 |⑤---|
③④①口 |----|
35
口②③口 |①--②|
①口口① |③--④|
⑧④⑤⑧ |⑤⑥⑦-|
口⑥⑦口 |⑧---|
36
口②③口 |①--②|
①④⑤① |③④⑤-|
口口口口
口口口口

口口口口
⑧口口⑧
⑦口口⑦ |⑥-⑦-|
⑥口口⑥ |⑧---|
37
④口③⑥ |①②③-|
口①②⑤ |④--⑤|
口口口口 |⑥-⑦-|
⑦口口⑧ |⑧---|
38
①⑦⑦③ |①-②-|
②⑥口④ |③-④-|
口口⑥口 |⑤-⑥-|
口⑤⑤口 |⑦---|
39
①口口④ |①-②-|
⑤⑧⑨② |③-④-|
③口口⑥ |⑤-⑥-|
⑦口口口 |⑦-⑧⑨|
40
口口①口 |①-②-|
口口口口 |③-④-|
④③②口
口②③④

⑤⑦⑥口
口⑥⑦⑤
口口口口 |⑤--⑥|
口口口口 |--⑦-|
41
①口口① |----|
口口口口 |----|
口口口口 |--①-|
②口口② |--②-|
42
④口口④ |①-②-|
口④④口 |③---|
③①②③ |④---|
口③③口 |----|
43
口②口口 |①---|
①②口① |----|
口口口口 |----|
口口口口 |--②-|
44
口口口口 |①-②-|
口口①① |③---|
②②③口
口口③口

④⑤口④
口⑤⑥⑥
口口口口 |④---|
口口口口 |⑤-⑥-|
45
③口口③ |①-②-|
口口口口 |--③-|
①①②口
口口②口

口口口口
⑥口口⑥
⑤口口⑤ |--④-|
④口口④ |⑤-⑥-|
46
④③②口 |----|
⑤口①⑥ |①-②-|
⑥①口⑤ |③-④-|
口②③④ |⑤-⑥-|
47
口⑤⑤① |①---|
口②③口 |②-③-|
口③②口 |--④-|
①④④口 |⑤---|
48
③口口③ |①---|
①⑤④① |②---|
①④⑤① |③---|
②口口② |④-⑤-|
49
③①口② |①---|
口口口口 |②---|
④④④④ |③---|
②口①③ |④---|
50
口口口口 |①---|
①①①① |----|
口口口口
口口口口

口口口口
②口口②
口口口口 |----|
口口口口 |--②-|
51
①口口① |①---|
⑥口口⑥ |②-③-|
⑤③③⑤ |--④-|
④②②④ |⑤-⑥-|
52
口①口口 |--①-|
口②口口 |②-③-|
口③⑥口 |④---|
口④⑤口 |⑤-⑥-|
53
③口②③ |①-②-|
⑥口①⑥ |--③-|
⑤口口⑤ |--④-|
④口口④ |⑤-⑥-|
54
口口口口 |----|
口口口③ |①---|
④②②口 |②---|
口①①口 |③-④-|
55
④⑤口③ |①---|
④⑤口口 |②---|
口口口口 |③---|
②口口① |④-⑤-|
56
⑤⑥①口 |①---|
⑤⑥①口 |②-③-|
口②③④ |④---|
口②③④ |⑤-⑥-|
57
口口口④ |①-②-|
口口口⑤ |③---|
⑤①②③ |④---|
④①②③ |⑤---|
58
口①口口 |①---|
口①②口 |----|
口②①口 |----|
口口①口 |--②-|
59
口口口口 |①---|
口口口① |----|
①口口口 |----|
口口口口 |----|


不确定度: 0

最終更新:2012年11月23日 01:29