バカサバイバー
ウルフルズ

BASIC

Level: 2
BPM: 131
Notes: 206

1
口口口口 |----|
口口口口 |----|
口口口口 |----|
口口口口 |----|
2
口口口口 |①---|
口口口口 |②---|
口③④口 |③---|
口②①口 |④---|
3
口口③口 |----|
口①②口 |①---|
口口口口 |②---|
口口口口 |③---|
4
口①口口 |①---|
口②口口 |②---|
口③④口 |③---|
口口口口 |④---|
5
口口口口 |①---|
口口口口 |----|
口口口口 |----|
口①①口 |----|
6
口口口口 |①---|
口口口口 |②---|
口④③口 |③---|
口①②口 |④---|
7
口③口口 |----|
口②①口 |①---|
口口口口 |②---|
口口口口 |③---|
8
口口①口 |①---|
口口②口 |②---|
口④③口 |③---|
口口口口 |④---|
9
口口口口 |①---|
口口口口 |----|
口口口口 |----|
口①①口 |----|
10
口口口口 |①---|
口①①口 |----|
口②口口 |②---|
口口口口 |----|
11
口口口口 |①---|
口①①口 |----|
口口②口 |②---|
口口口口 |----|
12
口口口口 |①---|
口口口口 |----|
口②口口 |②---|
口①①口 |----|
13
口②口口 |①---|
口口①口 |----|
口口口口 |②---|
口口口口 |----|
14
口口①② |①---|
口口口口 |----|
口口口口 |②---|
口口口口 |----|
15
口口口口 |①---|
口口①口 |----|
口②口口 |②---|
口口口口 |----|
16
口口口口 |①---|
口口口口 |----|
②口口② |②---|
口①①口 |----|
17
②口口② |①---|
口①①口 |----|
口口口口 |②---|
口口口口 |----|
18
口①①口 |①---|
口②②口 |----|
口②②口 |②---|
口口口口 |----|
19
口口口口 |①---|
口口口口 |----|
口口口口 |②---|
口②①口 |----|
20
口口口口 |①---|
口口口口 |----|
口①②口 |②---|
口口口口 |----|
21
口②①口 |①---|
口口口口 |----|
口口口口 |②---|
口口口口 |----|
22
口口口口 |①---|
①①②② |----|
口口口口 |②---|
口口口口 |----|
23
口口口口 |①---|
口口口口 |----|
②②①① |②---|
口口口口 |----|
24
口口口口 |①---|
口①②口 |②---|
口④③口 |③---|
口口口口 |④---|
25
口口口口 |①---|
口①②口 |②---|
口④③口 |③---|
口口口口 |④---|
26
口口口口 |①---|
口口口口 |②---|
口④③口 |③---|
口①②口 |④---|
27
口口③口 |----|
口①②口 |①---|
口口口口 |②---|
口口口口 |③---|
28
口①口口 |①---|
口②口口 |②---|
口③④口 |③---|
口口口口 |④---|
29
口口口口 |①---|
口口口口 |----|
口口口口 |----|
口①①口 |----|
30
口口口口 |①---|
口口口口 |②---|
口③④口 |③---|
口②①口 |④---|
31
口③口口 |----|
口②①口 |①---|
口口口口 |②---|
口口口口 |③---|
32
口口①口 |①---|
口口②口 |②---|
口④③口 |③---|
口口口口 |④---|
33
口口口口 |①---|
口口口口 |----|
口口口口 |----|
口①①口 |----|
34
口口口口 |①---|
②口口② |----|
口①①口 |②---|
口口口口 |----|
35
口①①口 |①---|
口②②口 |----|
口口口口 |②---|
口口口口 |----|
36
口口口口 |①---|
口口口口 |----|
口①①口 |----|
口口口口 |----|
37
口口口口 |①---|
口①②口 |②---|
口④④口 |③---|
口③③口 |④---|
38
口②口口 |①---|
口①①口 |----|
口口口口 |②---|
口口口口 |----|
39
口口②口 |①---|
口①①口 |----|
口口口口 |②---|
口口口口 |----|
40
口口口① |①---|
口口口② |----|
口口口口 |②---|
口口口口 |----|
41
口口口口 |①---|
口口口口 |----|
口②口① |②---|
口口口口 |----|
42
口口口口 |①---|
①①②② |----|
口口口口 |②---|
口口口口 |----|
43
①①②② |①---|
口口口口 |----|
口口口口 |②---|
口口口口 |----|
44
口口口口 |①---|
①口口口 |----|
②口口口 |②---|
口口口口 |----|
45
口口口口 |①---|
口口口口 |----|
口口口口 |②---|
①②口口 |----|
46
口口口口 |①---|
口②②口 |----|
口②②口 |②---|
口口①口 |----|
47
口②①口 |①---|
口口口口 |----|
口口口口 |②---|
口口口口 |----|
48
口口口口 |①---|
口①②口 |----|
口口口口 |②---|
口口口口 |----|
49
口口口口 |①---|
口口口口 |----|
口口口口 |②---|
口②①口 |----|
50
口口口口 |①---|
口口口口 |----|
②②①① |②---|
口口口口 |----|
51
口口口口 |①---|
①①②② |----|
口口口口 |②---|
口口口口 |----|
52
口口口口 |①---|
口③④口 |②---|
口②①口 |③---|
口口口口 |④---|
53
口口口口 |①---|
口③④口 |②---|
口②①口 |③---|
口口口口 |④---|
54
口口口口 |①---|
口④③口 |②---|
口①②口 |③---|
口口口口 |④---|
55
口③口口 |----|
口②①口 |①---|
口口口口 |②---|
口口口口 |③---|
56
口口①口 |①---|
口口②口 |②---|
口④③口 |③---|
口口口口 |④---|
57
口口口口 |①---|
口①①口 |----|
口口口口 |----|
口口口口 |----|
58
口口口口 |①---|
口④③口 |②---|
口①②口 |③---|
口口口口 |④---|
59
口③②口 |----|
口口①口 |①---|
口口口口 |②---|
口口口口 |③---|
60
口口口口 |①---|
口①②口 |②---|
口④③口 |③---|
口口口口 |④---|
61
口口口口 |①---|
口口口口 |----|
口口口口 |----|
口①①口 |----|
62
口口口口 |①---|
口口口口 |----|
口口口口 |②---|
①②②① |----|
63
口口口口 |①---|
口②②口 |----|
口①①口 |②---|
口口口口 |----|
64
口①①口 |①---|
口②②口 |----|
口口口口 |----|
口口口口 |②---|


不确定度: 0

最終更新:2012年11月23日 01:28