バカサバイバー
ウルフルズ

ADVANCED

Level: 6
BPM: 131
Notes: 422

1
口口口口 |----|
口口口口 |----|
口口口口 |----|
口口口口 |----|
2
口②①口 |①-②-|
口③④口 |③-④-|
口口⑤口 |--⑤-|
口口口口 |----|
3
⑤口口⑦ |--①-|
④口口⑥ |②-③-|
口③②① |④-⑤-|
口口口口 |⑥-⑦-|
4
口①②口 |①-②-|
口④③口 |③-④-|
口⑤口口 |--⑤-|
口⑥口口 |--⑥-|
5
②③口口 |--①-|
口④⑤口 |②-③-|
口口⑥⑦ |④-⑤-|
口口①口 |⑥-⑦-|
6
口①②口 |①-②-|
口④③口 |③-④-|
口⑤口口 |--⑤-|
口口口口 |----|
7
⑦口口⑤ |--①-|
⑥口口④ |②-③-|
①②③口 |④-⑤-|
口口口口 |⑥-⑦-|
8
口②①口 |①-②-|
口③④口 |③-④-|
口口⑤口 |--⑤-|
口⑥口口 |--⑥-|
9
口口③② |--①-|
口⑤④口 |②-③-|
⑦⑥口口 |④-⑤-|
口口①口 |⑥-⑦-|
10
口⑤④口 |①---|
口③口口 |--②-|
口口②口 |--③-|
口①①口 |④-⑤-|
11
口口口口 |①---|
口口口口 |--②-|
口口②口
口①①口

口口④口
口③口口
口口口口 |③-④-|
口⑤口口 |---⑤|
12
口④④口 |①②--|
③口口③ |----|
口②②口 |--③-|
口口①口 |--④-|
13
口⑦口口 |--①-|
口⑥⑤口 |②-③-|
口③④口 |④-⑤-|
口②①口 |⑥-⑦-|
14
①口口口 |----|
②口口口 |①-②-|
③口口口 |③-④-|
④⑤⑥口 |⑤-⑥-|
15
⑦⑤④⑦ |①-②-|
口⑥⑥③ |③-④-|
口口②口 |⑤---|
口口口① |⑥-⑦-|
16
口口⑤⑤ |--①-|
④④口口 |②-③-|
口口③口 |④---|
口①②口 |⑤---|
17
口⑦⑦口 |--①-|
口⑤⑥口 |②-③-|
①③②④ |④---|
口口口口 |⑤-⑥⑦|
18
①口口① |--①-|
口②口② |----|
口②口② |②---|
口口口口 |----|
19
①②③④ |--①-|
口⑤口口 |②-③-|
口口⑤口 |④-⑤-|
口口口口 |----|
20
③③⑥⑥ |-①--|
口②⑤口 |②-③-|
口①④口 |-④--|
口口口口 |⑤-⑥-|
21
口口口口 |-①-②|
③③⑥⑥ |--③-|
②口口⑤ |-④-⑤|
①口口④ |--⑥-|
22
口①①口 |①---|
口口口② |----|
口口口② |②---|
口口口口 |----|
23
口口口口 |①---|
②口口口 |----|
②口口口 |②---|
口①①口 |----|
24
口①①口 |①---|
④口口② |②---|
④口口② |③---|
口③③口 |④---|
25
口①①口 |①---|
口②②口 |②---|
口③③口 |③---|
口④④口 |④---|
26
口②①口 |①-②-|
口③④口 |③-④-|
口口⑤口 |--⑤-|
口口口口 |----|
27
⑤口口⑦ |--①-|
④口口⑥ |②-③-|
口③②① |④-⑤-|
口口口口 |⑥-⑦-|
28
口①②口 |①-②-|
口④③口 |③-④-|
口⑤口口 |--⑤-|
口⑥口口 |--⑥-|
29
②③口口 |--①-|
口④⑤口 |②-③-|
口口⑥⑦ |④-⑤-|
口口①口 |⑥-⑦-|
30
口①②口 |①-②-|
口④③口 |③-④-|
口⑤口口 |--⑤-|
口口口口 |----|
31
⑦口口⑤ |--①-|
⑥口口④ |②-③-|
①②③口 |④-⑤-|
口口口口 |⑥-⑦-|
32
口②①口 |①-②-|
口③④口 |③-④-|
口口⑤口 |--⑤-|
口⑥口口 |--⑥-|
33
口口③② |--①-|
口⑤④口 |②-③-|
⑦⑥口口 |④-⑤-|
口口①口 |⑥-⑦-|
34
口口①口 |①-②-|
口口②口 |--③-|
口口③口 |--④-|
口⑤④⑥ |⑤-⑥-|
35
③①①③ |--①-|
④①①④ |--②-|
口②②口 |--③-|
口②②口 |--④-|
36
口口口口 |--①-|
口口口口 |----|
口①①口 |----|
口口口口 |----|
37
口口口口 |①-②-|
口①口② |③-④-|
③口④口
口口口口

口口口口
口⑥⑥口
口口口口 |⑤---|
口⑤⑤口 |⑥---|
38
口①①口 |①--②|
②口⑥口 |--③-|
口③口④ |-④⑤-|
口口口⑤ |--⑥-|
39
口①①口 |①---|
②⑥口口 |②-③-|
口③口④ |-④⑤-|
口口口⑤ |---⑥|
40
口③③口 |①-②-|
口口口口 |③---|
口①口口
口②②口

口口口口
口口④⑦
口⑤口⑥ |④-⑤-|
口口口口 |⑥-⑦-|
41
口③②① |①-②-|
口口口口 |③---|
口口口口
口口口口

⑤口⑥口
④⑦⑦口
口口口口 |-④⑤-|
口口口口 |-⑥⑦-|
42
口口口口 |-①--|
口③④口 |②---|
②④③口 |--③-|
口①①口 |④---|
43
口②②口 |①---|
口口口口 |②---|
口口口口
口①①口

口口口口
口③口口
口口④口 |③-④-|
口⑤口口 |⑤---|
44
口口口口 |--①-|
③口⑥口 |②-③-|
②口⑤口 |④-⑤-|
①口④口 |⑥---|
45
口口口口 |--①-|
⑤口口⑥ |②-③-|
①③②④ |④---|
口口口口 |⑤-⑥-|
46
②①①② |①-②-|
③口③口 |----|
③口③口 |③---|
口口口口 |----|
47
①②③口 |-①-②|
口④口④ |-③--|
⑤口⑤口 |④--⑤|
口口口口 |----|
48
③③⑥⑥ |-①--|
口②⑤口 |②-③-|
口①④口 |-④--|
口口口口 |⑤-⑥-|
49
口口口口 |-①-②|
③③⑥⑥ |--③-|
②口口⑤ |-④-⑤|
①口口④ |--⑥-|
50
口口口口 |①---|
口口口② |----|
口口口② |②---|
口①①口 |----|
51
口①①口 |①---|
②口口口 |----|
②口口口 |②---|
口口口口 |----|
52
口③③口 |①---|
④口口② |②---|
④口口② |③---|
口①①口 |④---|
53
④口口④ |①---|
③③口口 |②---|
口口②② |③---|
口①①口 |④---|
54
口①③口 |①-②-|
口④②口 |③-④-|
口口⑤口 |--⑤-|
口口口口 |----|
55
⑤口口⑦ |--①-|
④口口⑥ |②-③-|
口③②① |④-⑤-|
口口口口 |⑥-⑦-|
56
口③①口 |①-②-|
口②④口 |③-④-|
口口口口
口口口口

口口口口
口⑥口口
口⑤口口 |--⑤-|
口口口口 |--⑥-|
57
口①口口 |--①-|
⑦⑥口口 |②-③-|
口⑤④口 |④-⑤-|
口口③② |⑥-⑦-|
58
口①③口 |①-②-|
口④②口 |③-④-|
口口⑤口 |--⑤-|
口口口口 |----|
59
⑦口口⑤ |--①-|
⑥口口④ |②-③-|
①②③口 |④-⑤-|
口口口口 |⑥-⑦-|
60
口③①口 |①-②-|
口②④口 |③-④-|
口⑤口口 |--⑤-|
口⑥口口 |--⑥-|
61
口口③② |--①-|
口⑤④口 |②-③-|
⑦⑥口口 |④-⑤-|
口口①口 |⑥-⑦-|
62
口口①口 |①-②-|
口口②口 |--③-|
口口③口 |--④-|
口⑤④⑥ |⑤-⑥-|
63
③①①③ |--①-|
④①①④ |--②-|
口②②口 |---③----|
口②②口 |--④-|
64
口口口口 |--①-|
口②②口 |----|
②①①② |----|
口口口口 |②---|


不确定度: 0

最終更新:2012年11月23日 01:28