バカサバイバー
ウルフルズ

EXTREME

Level: 8
BPM: 131
Notes: 603

1
口口口口 |----|
口口口口 |----|
口口口口 |----|
口口口口 |----|
2
口口口⑤ |①-②-|
口口⑤口 |③-④-|
口①③口 |--⑤-|
②口口④ |----|
3
⑦口口⑤ |--①-|
⑥口口④ |②-③-|
口口口口 |④-⑤-|
口①②③ |⑥-⑦-|
4
口口⑤⑤ |①-②-|
口①③口 |③-④-|
②⑥口④ |--⑤-|
口口⑥口 |--⑥-|
5
②口③口 |--①-|
口口口口 |②-③-|
口口①口
口①口口

口口口口
口④口⑤
⑥口⑦口 |④-⑤-|
口口口口 |⑥-⑦-|
6
口口⑤⑤ |①-②-|
口③①口 |③-④-|
④口口② |--⑤-|
口口口口 |----|
7
⑤口口⑦ |--①-|
④口口⑥ |②-③-|
口③口口 |④-⑤-|
口口②① |⑥-⑦-|
8
口口口口 |①-②-|
口口口口 |③-④-|
口③①口
④口口②

口口口⑤
口口⑤口
口口⑥口 |--⑤-|
口⑥口口 |--⑥-|
9
口③口② |--①-|
口口口口 |②-③-|
口①口口
口口①口

口口口口
⑤口④口
口⑦口⑥ |④-⑤-|
口口口口 |⑥-⑦-|
10
口口口口 |①②③-|
口口④③ |--④-|
口口②口
口口口①

口口口口
⑤口口口
口⑥⑦⑧ |--⑤-|
口口口口 |⑥⑦⑧-|
11
口口口口 |①②③④|
⑤口口⑤ |--⑤-|
口口口口
④③②①

口⑥⑥口
口口口口
口口⑧口 |-⑥--|
口口口⑦ |------⑦⑧|
12
口口口口 |①②--|
口①②口 |----|
口②口口
口口②口

口⑨⑨口
③⑧⑦⑥
口④⑤口 |----③④⑤⑥|
口口口口 |-⑦⑧⑨|
13
口口口口 |--①②|
口口⑥⑤ |③④⑤⑥|
①口口④
口②③口

⑨口⑩⑪
⑧⑦口口
口⑬⑫口 |⑦⑧⑨⑩|
口⑫⑬口 |⑪⑫⑬-|
14
口口⑪⑩ |----|
⑤⑦③⑨ |①-②③|
⑥④⑧② |④⑤⑥⑦|
口口口① |⑧⑨⑩⑪|
15
⑩口口⑩ |-①②③|
⑨⑤③⑨ |④⑤⑥⑦|
⑦④⑥② |⑧---|
⑧口口① |⑨-⑩-|
16
⑨⑨⑧⑧ |--①②|
口口⑦⑦ |③-④⑤|
④⑤⑥⑥ |⑥--⑦--⑧-|
口③②① |⑨---|
17
口⑨⑨口 |--①②|
⑦口口⑧ |③④⑤-|
①⑤⑥④ |⑥---|
口②③口 |⑦-⑧⑨|
18
①口口① |--①-|
②②②② |----|
口②口② |②---|
口口口口 |----|
19
①②③④ |-①②③|
口⑦口口 |④-⑤-|
口口⑦⑤ |⑥-⑦-|
口口口⑥ |----|
20
⑩⑩⑤⑤ |-①②③|
口④⑨口 |④-⑤-|
②③⑧⑦ |-⑥⑦⑧|
①口口⑥ |⑨-⑩-|
21
口口口口 |-①②③|
①口口② |④-⑤-|
口③⑤口
口⑤④口

口⑥⑦口
口⑧⑨口
口口口口 |-⑥⑦⑧|
口口⑩口 |⑨-⑩-|
22
口口口口 |①---|
①口口口 |----|
①①②② |②---|
①①②② |----|
23
口①口口 |①---|
①口口口 |----|
口①②② |②---|
口口②② |----|
24
口口口口 |①---|
口①①口 |②---|
口①②②
①①②②

④③④口
③④口口
③口口口 |③---|
口口口口 |④---|
25
口②口② |①---|
口口②① |②---|
口口口①
口口口①

口口口口
口口口④
③③④口 |③---|
③③④口 |④---|
26
口口⑤⑤ |①-②-|
口①③口 |③-④-|
口口口口 |--⑤-|
②口口④ |----|
27
⑦口口⑤ |--①-|
⑥口口④ |②-③-|
口口口口 |④-⑤-|
口①②③ |⑥-⑦-|
28
口口⑤⑤ |①-②-|
口①③口 |③-④-|
⑥口口口 |--⑤-|
②口⑥④ |--⑥-|
29
口③口② |--①-|
口口口口 |②-③-|
口口口①
口①口口

口口口口
⑤口④口
口⑦口⑥ |④-⑤-|
口口口口 |⑥-⑦-|
30
口口⑤⑤ |①-②-|
口①③口 |③-④-|
②口口④ |--⑤-|
口口口口 |----|
31
⑤口口⑦ |--①-|
④口口⑥ |②-③-|
口③口口 |④-⑤-|
口口②① |⑥-⑦-|
32
口口口⑤ |①-②-|
口口⑤口 |③-④-|
口①③⑥ |--⑤-|
②⑥口④ |--⑥-|
33
口③口② |--①-|
⑤口④口 |②-③-|
①⑦口⑥ |④-⑤-|
口口①口 |⑥-⑦-|
34
口①③口 |①-②-|
口①口口 |--③-|
口口②口
口口②口

口口口口
口口④口
口⑤口口 |--④-|
口口⑥口 |⑤-⑥-|
35
口①①① |--①-|
①②口① |--②-|
②②②②
口②口②

③口口口
口口口④
口口口口 |--③-|
口口口口 |--④-|
36
③口口③ |--①-|
口口口口 |--②-|
口①①口 |--③-|
②①①② |----|
37
口口口口 |①-②-|
口①口② |③-④-|
③口④口
口口口口

口口口口
⑥⑥⑥⑥
口口口口 |⑤---|
⑤⑤⑤⑤ |⑥---|
38
口口口① |①-②③|
口④口口 |--④-|
口口口②
口口口③

口口口口
口口口口
口⑤口口 |-⑤⑥-|
口⑥⑧⑦ |--⑦⑧|
39
口③②口 |①-②-|
口口口口 |③-④-|
④口①口
口口口口

⑥口口口
⑤口口口
口⑧⑦口 |-⑤⑥-|
口口口口 |------⑦⑧|
40
口口⑦⑥ |①-②③|
口口口⑤ |④⑤⑥⑦|
①口口④
口口②③

⑨⑧口口
⑩口口口
⑪口⑮口 |⑧⑨⑩⑪|
⑫⑬⑭口 |⑫⑬⑭⑮|
41
口口口口 |①②③-|
口②①口 |④---|
口③口④
口口口④

口⑧⑥口
⑦⑨⑨⑤
口口口口 |--⑤⑥|
口口口口 |⑦⑧⑨-|
42
⑤口口口 |-①-②|
⑥口口口 |③④⑤⑥|
口①口④
③口①②

口口⑨⑦
口⑧⑪⑩
⑫⑮⑭口 |⑦⑧⑨⑩|
口⑬口口 |⑪-⑫⑬⑭-⑮-|
43
①①③③ |①-②-|
④④口口 |③-④-|
口口口口
口口②②

口口口口
口口口口
⑤⑥口口 |⑤⑥⑦⑧|
⑦⑧⑨口 |⑨---|
44
⑥⑤⑦⑧ |----①②③-|
④④⑨⑩ |④-⑤⑥|
③②①口 |-⑦⑧⑨|
口口口口 |⑩---|
45
口⑪⑪口 |--①②|
⑧⑩⑦⑨ |③④⑤-|
①⑤⑥④ |⑥⑦--|
口②③口 |⑧⑨⑩⑪|
46
口口口口 |-①②-|
③③③③ |----|
③②③② |③---|
①口①口 |----|
47
①②③④ |-①②③|
口口⑤口 |④⑤⑥-|
口⑥⑧⑧ |⑦--⑧|
口口⑦⑦ |----|
48
⑩⑩⑤⑤ |-①②③|
口④⑨口 |④-⑤-|
②③⑧⑦ |-⑥⑦⑧|
①口口⑥ |⑨-⑩-|
49
口口口口 |-①②③|
口口口口 |④-⑤-|
口⑤⑤口
①②③④

口⑥⑦口
口⑧⑨口
口口口口 |-⑥⑦⑧|
口口⑩口 |⑨-⑩-|
50
口口口口 |①---|
①口口口 |----|
①①②② |②---|
①①②② |----|
51
口①口口 |①---|
①口口口 |----|
口①②② |②---|
口口②② |----|
52
口口口口 |①---|
口①①口 |②---|
口①②②
①①②②

④③④口
③④口口
③口口口 |③---|
口口口口 |④---|
53
口②口② |①---|
口口②① |②---|
口口口①
口口口①

口口口口
口口口④
③③④口 |③---|
③③④口 |④---|
54
口口⑤⑤ |①-②-|
口①③口 |③-④-|
口口口口 |--⑤-|
②口口④ |----|
55
⑦口口⑤ |--①-|
⑥口口④ |②-③-|
口口口口 |④-⑤-|
口①②③ |⑥-⑦-|
56
口口⑤⑤ |①-②-|
口①③口 |③-④-|
⑥口口口 |--⑤-|
②口⑥④ |--⑥-|
57
口③口② |--①-|
口口口口 |②-③-|
口口口①
口①口口

口口口口
⑤口④口
口⑦口⑥ |④-⑤-|
口口口口 |⑥-⑦-|
58
口口⑤⑤ |①-②-|
口①③口 |③-④-|
②口口④ |--⑤-|
口口口口 |----|
59
⑤口口⑦ |--①-|
④口口⑥ |②-③-|
口③口口 |④-⑤-|
口口②① |⑥-⑦-|
60
口口口⑤ |①-②-|
口口⑤口 |③-④-|
口①③⑥ |--⑤-|
②⑥口④ |--⑥-|
61
口③口② |--①-|
⑤口④口 |②-③-|
①⑦口⑥ |④-⑤-|
口口①口 |⑥-⑦-|
62
口①③口 |①-②-|
口①口口 |--③-|
口口②口
口口②口

口口口口
口口④口
口⑤口口 |--④-|
口口⑥口 |⑤-⑥-|
63
口①①① |--①-|
①②口① |--②-|
②②②②
口②口②

③口口口
口口口④
口口口口 |--③-|
口口口口 |--④-|
64
口口口口 |--①-|
口口口口 |----|
口①①口
口①①口

口口口口
②口口②
口②②口 |----|
②口口② |②---|


不确定度: 0

最終更新:2012年11月23日 01:28