愛をとりもどせ!!

BASIC

Level: 2
BPM: 141-158
Notes: 183

BPM: 158
1
口口口口 |----|
口口口口 |----|
口口口口 |----|
口口口口 |----|
2
口口口口 |①---|
口①②口 |②---|
口口③口 |--③-|
口口口口 |----|
3
口口口口 |①---|
口②②口 |--②-|
①口口① |----|
口口口口 |----|
4
①口口① |①---|
②口口② |--②-|
③口口③ |----|
口口口口 |--③-|
5
口口口口 |----|
口口口口 |----|
口口口口 |----|
口口口口 |----|
6
口口口口 |①---|
口①②口 |②---|
口口③口 |--③-|
口口口口 |----|
7
口口口口 |①---|
口②②口 |--②-|
①口口① |----|
口口口口 |----|
8
①口口① |①---|
②口口② |--②-|
③口口③ |----|
口口口口 |--③-|
9
口口口口 |----|
口口口口 |----|
口①②口 |①---|
口口口口 |②---|
10
②口口② |①---|
口①①口 |--②-|
口口口口 |----|
口口口口 |----|
11
口口口口 |①---|
口口口口 |----|
①口口② |②---|
口口口口 |----|
12
口口口口 |①---|
口①②口 |----|
口口口口 |②---|
口口口口 |----|
13
口①①口 |①---|
口口口口 |----|
口口口口 |----|
口口口口 |----|
14
②口口② |①---|
口①①口 |--②-|
口口口口 |----|
口口口口 |----|
15
口口口口 |①---|
口口口口 |----|
①口口② |②---|
口口口口 |----|
16
口口口口 |①---|
口①②口 |----|
口口口口 |②---|
口口口口 |----|
17
口①①口 |①---|
口口口口 |----|
口口口口 |----|
口口口口 |----|
18
口口口口 |①---|
口口口口 |----|
口口口① |②---|
口口②口 |----|
19
口口口口 |①---|
口口口口 |----|
②口口口 |②---|
口①口口 |----|
20
口口口口 |①---|
口①①口 |----|
口口口口 |----|
口口口口 |----|
21
口口口口 |①---|
口口口口 |--②-|
口①①口 |----|
口②②口 |----|
22
口②口口 |①---|
①口口口 |----|
口口口口 |②---|
口口口口 |----|
23
口口①口 |①---|
口口口② |----|
口口口口 |②---|
口口口口 |----|
24
口口口口 |①---|
口口口口 |----|
口①①口 |----|
口口口口 |----|
25
口口口口 |①---|
口口口口 |----|
①口口① |----|
口口口口 |----|
26
②口口② |①---|
口①①口 |--②-|
口口口口 |----|
口口口口 |----|
27
口口口口 |①---|
口口口口 |----|
①口口② |②---|
口口口口 |----|
28
口口口口 |①---|
口①②口 |----|
口口口口 |②---|
口口口口 |----|
29
口①①口 |①---|
口口口口 |----|
口口口口 |----|
口口口口 |----|
30
②口口② |①---|
口①①口 |--②-|
口口口口 |----|
口口口口 |----|
31
口口口口 |①---|
口口口口 |----|
①口口② |②---|
口口口口 |----|
32
口口口口 |①---|
口①②口 |----|
口口口口 |②---|
口口口口 |----|
33
口①①口 |①---|
口口口口 |----|
口口口口 |----|
口口口口 |----|
34
口口口口 |①---|
口②口口 |----|
①口口口 |②---|
口口口口 |----|
35
口口口口 |①---|
口口①口 |----|
口口口② |②---|
口口口口 |----|
36
口口口口 |①---|
口口口口 |----|
口口口口 |----|
口①①口 |----|
37
口口口口 |①---|
口②②口 |--②-|
口①①口 |----|
口口口口 |----|
38
口口口口 |①---|
①口口口 |----|
口②口口 |②---|
口口口口 |----|
39
口口口口 |①---|
口口口② |----|
口口①口 |②---|
口口口口 |----|
40
口①①口 |①---|
口口口口 |----|
口口口口 |----|
口口口口 |----|
41
口口口口 |①---|
口口口口 |----|
①口口① |----|
口口口口 |----|
42
口口口口 |----|
口口口口 |----|
口口口口 |----|
口口口口 |----|
43
口口口口 |①---|
④口口③ |②---|
②口口① |③---|
口口口口 |④---|
44
②口③① |①---|
口口口口 |②---|
口口口口 |③---|
口口口口 |----|
45
③①②④ |①---|
口口口口 |②---|
口口口口 |③---|
口口口口 |④---|
46
口口口口 |①---|
①口口口 |----|
②口口口 |②---|
口口口口 |----|
47
口口口口 |①---|
口口口口 |----|
口口口口 |----|
口①①口 |----|
48
口口口口 |①---|
①口口① |----|
口口口口 |----|
口口口口 |----|
49
口口口口 |①---|
口口口口 |----|
口①①口 |----|
口口口口 |----|
50
口口口口 |①---|
口①①口 |----|
口口口口 |----|
口口口口 |----|
51
口③④口 |①---|
①口口② |②---|
口口口口 |③---|
口口口口 |④---|
52
口口口口 |①---|
口①②口 |②---|
口口口口 |----|
口口口口 |----|
53
口口口口 |①---|
口③④口 |②---|
口①②口 |③---|
口口口口 |④---|
54
口口口口 |①---|
口口口口 |----|
口口口① |----|
口口口口 |----|
55
口口口口 |①---|
口口口口 |----|
口口口口 |----|
口①①口 |----|
56
口口口口 |①---|
①口口① |----|
口口口口 |----|
口口口口 |----|

BPM: 141
57
口口口口 |①---|
口口口口 |----|
口②②口 |②---|
口①①口 |----|
58
口②②口 |①---|
口①①口 |----|
口口口口 |②---|
口口口口 |----|

BPM: 157
59
口口口口 |①---|
口口口口 |----|
口口口口 |----|
①口口① |----|

BPM: 154
60
口口口口 |①---|
口口口口 |----|
①口口① |----|
口口口口 |----|
61
口口口口 |①---|
①口口① |----|
口口口口 |----|
口口口口 |----|
62
①口口① |①---|
口口口口 |----|
口口口口 |----|
口口口口 |----|

BPM: 155
63
口口口口 |①---|
口①②口 |②---|
口口③口 |--③-|
口口口口 |----|
64
口口口口 |①---|
口口口口 |--②-|
②口口② |----|
①口口① |----|
65
口口口口 |①---|
口①①口 |----|
口口口口 |②---|
②口口口 |----|
66
口口口口 |①---|
口口口口 |----|
口口口口 |②---|
口①②口 |----|
67
口口口口 |①---|
口①②口 |②---|
口口③口 |--③-|
口口口口 |----|
68
口口口口 |①---|
口口口口 |--②-|
②口口② |----|
①口口① |----|
69
③口口③ |①---|
口①②口 |--②-|
口口口口 |----|
口口口口 |--③-|
70
口口口口 |----|
口口口口 |----|
口口口口 |----|
口口口口 |----|
71
口口口口 |----|
口②②口 |----|
口①①口 |①---|
口口口口 |--②-|


不确定度: 0

最終更新:2012年11月23日 01:25