愛をとりもどせ!!

ADVANCED

Level: 5
BPM: 141-158
Notes: 354

BPM: 158
1
口口口口 |----|
口口口口 |----|
口口口口 |----|
口口口口 |----|
2
④口口④ |①-②-|
①口⑤② |③---|
口③③口 |--④-|
口口口口 |--⑤-|
3
口口口口 |①-②-|
⑤口⑦口 |③-④-|
口⑥口口 |--⑤-|
①②③④ |⑥-⑦-|
4
口②③口 |①---|
④口口④ |②-③-|
口口口① |----|
口口口口 |--④-|
5
口口口口 |----|
口口口口 |----|
口口口口 |----|
口口口口 |----|
6
④口口④ |①-②-|
①口⑤② |③---|
口③③口 |--④-|
口口口口 |--⑤-|
7
口口口口 |①-②-|
⑤口⑦口 |③-④-|
口⑥口口 |--⑤-|
①②③④ |⑥-⑦-|
8
口②③口 |①---|
④口口④ |②-③-|
口口口① |----|
口口口口 |--④-|
9
口口口口 |----|
口口口口 |----|
口①①口 |①---|
口②②口 |②---|
10
③③③③ |①-②-|
①口口② |--③-|
口口口口 |----|
口口口口 |----|
11
口口口口 |--①-|
①②③口 |②-③-|
口⑥⑤④ |--④-|
口口口口 |⑤-⑥-|
12
①口口口 |----|
口②口口 |①-②-|
⑤口③口 |③-④-|
口口口④ |--⑤-|
13
口口口口 |----|
口口口口 |----|
口口口口 |----|
口口口口 |----|
14
③③③③ |①-②-|
①口口② |--③-|
口口口口 |----|
口口口口 |----|
15
①②③口 |--①-|
口口口口 |②-③-|
口⑥⑤④ |--④-|
口口口口 |⑤-⑥-|
16
①口口口 |----|
口②口口 |①-②-|
⑤口③口 |③-④-|
口口口④ |--⑤-|
17
口口口口 |----|
口①①口 |----|
口口口口 |----|
口口口口 |--①-|
18
口②③口 |--①-|
①口口④ |②-③-|
口口⑤口 |④-⑤-|
口⑥⑥口 |--⑥-|
19
口⑦口口 |--①-|
口⑤⑥口 |②-③-|
口②③口 |④-⑤-|
①口口④ |⑥-⑦-|
20
口口①口 |①---|
口口口口 |----|
口口口口
口口口口

②③④口
口口口口
口口口口 |--②-|
口口口口 |③-④-|
21
口口口口 |①---|
口①①口 |②-③-|
②③③② |--④-|
口④④口 |----|
22
①口口② |①-②-|
③口口④ |③-④-|
⑤口⑥⑦ |⑤---|
口口口口 |⑥-⑦-|
23
口①②口 |①-②-|
口③④口 |③-④-|
口口口口 |⑤---⑥-|
⑤⑥⑦口 |--⑦---|
24
口口口口 |①---|
②口口口 |----|
口③口口 |--②-|
口口口① |③---|
25
口口口口 |①---|
口口口口 |----|
口口①① |----|
口口口口 |----|
26
③③③③ |①-②-|
①口口② |--③-|
口口口口 |----|
口口口口 |----|
27
口口口口 |--①-|
①②③口 |②-③-|
口⑥⑤④ |--④-|
口口口口 |⑤-⑥-|
28
①口口口 |----|
口②口口 |①-②-|
⑤口③口 |③-④-|
口口口④ |--⑤-|
29
口口口口 |----|
口口口口 |----|
口口口口 |----|
口口口口 |----|
30
③③③③ |①-②-|
①口口② |--③-|
口口口口 |----|
口口口口 |----|
31
①②③口 |--①-|
口口口口 |②-③-|
口⑥⑤④ |--④-|
口口口口 |⑤-⑥-|
32
①口口口 |----|
口②口口 |①-②-|
⑤口③口 |③-④-|
口口口④ |--⑤-|
33
口口口口 |----|
口①①口 |----|
口口口口 |----|
口口口口 |--①-|
34
口②③口 |--①-|
①口口④ |②-③-|
⑤口口口 |④---|
口⑥⑥口 |⑤-⑥-|
35
口⑦口口 |--①-|
口⑤⑥口 |②-③-|
口②③口 |④-⑤-|
①口口④ |⑥-⑦-|
36
口口①口 |①---|
口口口口 |----|
口口口口
口口口口

②③④口
口口口口
口口口口 |--②-|
口口口口 |③-④-|
37
口口口口 |①---|
口①①口 |②-③-|
②③③② |--④-|
口④④口 |----|
38
①口口② |①-②-|
③口口④ |③-④-|
⑤口⑥⑦ |⑤---|
口口口口 |⑥-⑦-|
39
口口①口 |--①-|
口②③口 |②-③-|
口口口口 |④---⑤-|
④⑤⑥口 |--⑥---|
40
口口口口 |①---|
②口④④ |----|
口③口口 |--②-|
口口口① |③-④-|
41
口口口口 |----|
口口口口 |----|
口口口口 |----|
口口口口 |----|
42
口口口口 |----|
口口口口 |----|
口口口口 |----|
口①口口 |--①-|
43
口⑤⑥口 |--①-|
口③④口 |②-③-|
⑦①②口 |④-⑤-|
口口口口 |⑥-⑦-|
44
④口口口 |①-②-|
②口口③ |③-④-|
口口口① |----|
口口⑤口 |--⑤-|
45
口口口口 |--①-|
⑥③口⑤ |②-③-|
④①②口 |④---|
口口口口 |⑤--⑥|
46
②口口口 |--①-|
口口口口 |----|
口口口① |----|
口口口口 |--②-|
47
口口口① |①---|
口口口口 |----|
口口口口 |----|
口②③口 |②-③-|
48
口口口口 |----|
口口口口 |----|
口口口口 |----|
口口口口 |----|
49
口口口口 |①---|
②③③② |②---|
①④④① |③-④-|
⑥⑤⑤⑥ |⑤-⑥-|
50
口口口口 |----|
口口口口 |----|
口口口口 |----|
口①口口 |--①-|
51
口⑤⑥口 |--①-|
口③④口 |②-③-|
⑦①②口 |④-⑤-|
口口口口 |⑥-⑦-|
52
④口口口 |①-②-|
②口口③ |③-④-|
口口口① |----|
口口⑤口 |--⑤-|
53
口口口口 |--①-|
⑥③口⑤ |②-③-|
④①②口 |④---|
口口口口 |⑤--⑥|
54
口口口口 |--①-|
口口口口 |----|
口口口① |----|
口口口口 |----|
55
口口口口 |①---|
①①①① |----|
口③③口 |----|
口口②口 |②-③-|
56
①口口② |----|
口③④口 |①-②-|
口口口口 |③-④-|
口口口口 |----|

BPM: 141
57
②口口口 |①---②-|
口口口③ |--③---|
①口口①
口口口口

口口口口
口口口口
⑥④口口 |④---⑤-|
口口⑤口 |--⑥---|
58
②口口口 |①---②-|
口口③① |--③---|
⑥④口口 |④---⑤-|
口口⑤口 |--⑥---|

BPM: 157
59
口口口口 |①---|
口①①口 |----|
口口口口 |----|
口口口口 |----|

BPM: 154
60
口口口口 |①---|
口口口口 |----|
口口口口 |----|
①①①① |----|
61
口口口口 |①---|
口口口口 |----|
①①①① |----|
口口口口 |----|
62
口口口口 |①---|
①①①① |----|
口口口口 |----|
口口口口 |----|

BPM: 155
63
④口口④ |①-②-|
①口⑤② |③---|
口③③口 |--④-|
口口口口 |--⑤-|
64
口口口口 |①-②-|
⑤口⑦口 |③-④-|
口⑥口口 |--⑤-|
①②③④ |⑥-⑦-|
65
②③④口 |①---|
口口口口 |②---|
口口口① |③---|
口口口口 |④---|
66
口口口① |①---|
口②③口 |②---|
④口口④ |③---|
口口口口 |④---|
67
④口口④ |①-②-|
①口⑤② |③---|
口③③口 |--④-|
口口口口 |--⑤-|
68
口口口口 |①-②-|
⑤口⑦口 |③-④-|
口⑥口口 |--⑤-|
①②③④ |⑥-⑦-|
69
口③④口 |①-②-|
⑤②口口 |③-④-|
口口口① |--⑤-|
口⑥口口 |--⑥-|
70
口口口口 |--①-|
口口⑤口 |-②--|
②④口① |③--④|
口口③口 |--⑤-|
71
①③④口 |-①--|
口⑥⑤② |②---|
口⑥口口 |③-④-|
口⑥⑥口 |⑤-⑥-|


不确定度: 0

最終更新:2012年11月23日 01:25