愛をとりもどせ!!

EXTREME

Level: 7
BPM: 141-158
Notes: 498

BPM: 158
1
口口口口 |----|
口口口口 |----|
口①②口 |--①②|
口③口口 |③---|
2
①①②② |①-②-|
口③③口 |③---|
口口口口
口口口口

口口⑤口
⑥口口口
④口口④ |--④-|
口④④口 |--⑤⑥|
3
口④口口 |①-②-|
口②口③ |③-④-|
口⑥①口 |--⑤-|
⑤口⑦口 |⑥-⑦-|
4
口④④口 |①---|
②口口③ |②-③-|
口口口① |----|
口口口口 |--④-|
5
口口口口 |----|
口口口口 |----|
口口口口 |----|
口口口口 |----|
6
③口⑤③ |①-②-|
⑥②②口 |③---|
④①①④ |--④-|
口④④口 |--⑤⑥|
7
口④口口 |①-②-|
口②口③ |③-④-|
口⑥①口 |--⑤-|
⑤口⑦口 |⑥-⑦-|
8
口④④口 |①---|
②口口③ |②-③-|
口口口① |----|
口口口口 |--④-|
9
口口口口 |----|
①口口② |----|
①口口② |①---|
口口口口 |②---|
10
①口口① |①-②-|
口③③口 |--③-|
口③③口 |----|
②口口② |----|
11
③①①② |--①-|
③口口② |②-③-|
⑤口口⑥ |--④-|
⑤④④⑥ |⑤-⑥-|
12
口口口口 |----|
①口口② |①-②-|
③口口④ |③-④-|
⑤⑤⑤⑤ |--⑤-|
13
口口口口 |----|
口口口口 |----|
口口口口 |----|
口口口口 |----|
14
①口口① |①-②-|
口③③口 |--③-|
口③③口 |----|
②口口② |----|
15
③①①② |--①-|
③口口② |②-③-|
⑤口口⑥ |--④-|
⑤④④⑥ |⑤-⑥-|
16
口口口口 |----|
①口口② |①-②-|
③口口④ |③-④-|
⑤⑤⑤⑤ |--⑤-|
17
口①①口 |----|
口口口口 |----|
口口口口 |----|
口口口口 |--①-|
18
⑥口口⑥ |--①-|
口①④口 |②-③-|
口⑤②口 |④-⑤-|
口③口口 |--⑥-|
19
口口口口 |--①-|
④口⑦① |②-③-|
②口口⑤ |④-⑤-|
⑥口口③ |⑥-⑦-|
20
口口口口 |①---|
口口口口 |----|
口①口口 |--②-|
③口②④ |③-④-|
21
②④④② |①---|
①②②① |②-③-|
③①①③ |--④-|
口③③口 |----|
22
①⑥⑦① |①-②-|
②口口④ |③-④-|
③口口⑤ |⑤---|
口口口口 |⑥-⑦-|
23
口口口口 |①-②-|
⑦①③⑦ |③-④-|
⑥②④⑥ |⑤---⑥-|
⑤口口⑤ |--⑦---|
24
①口口① |①---|
口口口口 |----|
口口口口 |--②-|
口②③口 |③---|
25
①①①① |①---|
口①①口 |----|
口口口口 |----|
口口口口 |----|
26
①口口① |①-②-|
口③③口 |--③-|
口③③口 |----|
②口口② |----|
27
③①①② |--①-|
③口口② |②-③-|
⑤口口⑥ |--④-|
⑤④④⑥ |⑤-⑥-|
28
口口口口 |----|
①口口② |①-②-|
③口口④ |③-④-|
⑤⑤⑤⑤ |--⑤-|
29
口口口口 |----|
口口口口 |----|
口口口口 |----|
口口口口 |----|
30
①口口① |①-②-|
口③③口 |--③-|
口③③口 |----|
②口口② |----|
31
③①①② |--①-|
③口口② |②-③-|
⑤口口⑥ |--④-|
⑤④④⑥ |⑤-⑥-|
32
口口口口 |----|
①口口② |①-②-|
③口口④ |③-④-|
⑤⑤⑤⑤ |--⑤-|
33
口①①口 |----|
口口口口 |----|
口口口口 |----|
口口口口 |--①-|
34
⑥口⑤口 |--①-|
口①④口 |②-③-|
口口②口 |④---|
口③口口 |⑤-⑥-|
35
口口口口 |--①-|
④口⑦① |②-③-|
②口口⑤ |④-⑤-|
⑥口口③ |⑥-⑦-|
36
口口口口 |①---|
口口口口 |----|
口①口口 |--②-|
③口②④ |③-④-|
37
②④④② |①---|
①②②① |②-③-|
③①①③ |--④-|
口③③口 |----|
38
①⑥⑦口 |①-②-|
②口口④ |③-④-|
③口口⑤ |⑤---|
口口口口 |⑥-⑦-|
39
口口口口 |--①-|
⑥口②⑥ |②-③-|
⑤①③⑤ |④---⑤-|
④口口④ |--⑥---|
40
①④④① |①---|
口④④口 |----|
口口口口 |--②-|
口②③口 |③-④-|
41
口口口口 |----|
口口口口 |----|
口口口口 |----|
口口口口 |----|
42
口口口口 |----|
口口口口 |----|
①口口① |----|
口口口口 |--①-|
43
口②④口 |--①-|
口⑥口口 |②-③-|
口①③口 |④-⑤-|
口⑤⑦口 |⑥-⑦-|
44
⑤口口口 |①-②-|
④口①口 |③-④-|
口②③口 |----|
口口口口 |--⑤-|
45
口口口口 |--①-|
口口口口 |②-③-|
口③口①
口口②口

⑤④口口
④⑤口口
口口⑥⑥ |④---|
口口口口 |⑤--⑥|
46
口口口口 |--①-|
口口口口 |----|
口口口口
口口①①

口口口口
口口口口
口口口口 |----|
口口②口 |--②-|
47
口口口口 |①---|
口口口口 |----|
①①③③ |----|
口②口口 |②-③-|
48
口口口口 |----|
口口口口 |----|
口口口口 |----|
口口口口 |----|
49
⑥⑤口① |①---|
口④③② |②---|
②③④口 |③-④-|
①口⑤⑥ |⑤-⑥-|
50
口口口口 |----|
口口口口 |----|
①口口① |----|
口口口口 |--①-|
51
口②④口 |--①-|
口⑥口口 |②-③-|
口①③口 |④-⑤-|
口⑤⑦口 |⑥-⑦-|
52
⑤口口口 |①-②-|
④口①口 |③-④-|
口②③口 |----|
口口口口 |--⑤-|
53
⑤④⑥口 |--①-|
④⑤口⑥ |②-③-|
口③口① |④---|
口口②口 |⑤--⑥|
54
口口口① |--①-|
口口①口 |----|
口口口口 |----|
口口口口 |----|
55
口口口口 |①---|
口口口口 |----|
①①①①
口口口口

口口口口
口口口口
③③③③ |----|
口口②口 |②-③-|
56
②口口① |----|
口口口口 |①-②-|
口口口口 |③-④-|
④口口③ |----|

BPM: 141
57
口口口口 |①---②-|
①①①① |--③---|
②②口口
口口③③

④④口口
口口⑤⑤
口口口口 |④---⑤-|
⑥⑥口口 |--⑥---|
58
④④①① |①---②-|
②②口口 |--③---|
⑥⑥③③ |④---⑤-|
口口⑤⑤ |--⑥---|

BPM: 157
59
口口口口 |①---|
①①①① |----|
口口口口 |----|
口口口口 |----|

BPM: 154
60
口口口口 |①---|
口口口口 |----|
①①口口 |----|
口口①① |----|
61
口口①① |①---|
①①口口 |----|
口口口口 |----|
口口口口 |----|
62
口口口口 |①---|
①①口口 |----|
口口①① |----|
口口口口 |----|

BPM: 155
63
①①②② |①-②-|
口③③口 |③---|
口口口口
口口口口

口口⑤口
⑥口口口
④口口④ |--④-|
口④④口 |--⑤⑥|
64
口④口口 |①-②-|
口②口③ |③-④-|
口⑥①口 |--⑤-|
⑤口⑦口 |⑥-⑦-|
65
口口口口 |①---|
口口口口 |----|
口④⑤① |----|
口②③口 |②③④⑤|
66
⑪③④⑫ |①②③④|
⑨①②⑩ |⑤⑥⑦⑧|
⑦口口⑧ |⑨⑩⑪⑫|
⑤⑬⑬⑥ |⑬---|
67
口口⑤口 |①-②-|
⑥②②口 |③---|
④①①④ |--④-|
③④④③ |--⑤⑥|
68
口④口口 |①-②-|
口②口③ |③-④-|
口⑥①口 |--⑤-|
⑤口⑦口 |⑥-⑦-|
69
口口②② |①-②-|
③口口④ |③-④-|
口口口①
口口口口

口⑥⑥口
口⑤⑤口
口口口口 |--⑤-|
口口口口 |--⑥-|
70
⑤口口⑤ |--①-|
④口口④ |-②--|
③②②③ |③--④|
①①①① |--⑤-|
71
口①①口 |-①--|
口口口口 |②---|
口②②口
口口口口

④⑤口口
④口⑥⑥
③口口口 |③-④-|
③口口口 |⑤-⑥-|


不确定度: 0

最終更新:2012年11月23日 01:25