夢見る少女じゃいられない
相川七瀬

ADVANCED

Level: 5
BPM: 158
Notes: 328

1
口口口口 |----|
口口口口 |----|
口口口口 |----|
口口口口 |----|
2
口口口口 |①---|
口口口口 |--②-|
④口口口 |③---|
③②口① |--④-|
3
口口口口 |--①-|
口口口④ |--②-|
口①②③ |③---|
口口口口 |--④-|
4
④口口口 |①---|
②③①口 |--②-|
口口口口 |③---|
口口口口 |--④-|
5
口①②③ |--①-|
口④④口 |--②-|
口口口口 |③---|
口口口口 |④---|
6
口口口口 |①---|
口口口口 |--②-|
④口口口 |③---|
③②口① |--④-|
7
口口口口 |--①-|
口口口④ |--②-|
口①②③ |③---|
口口口口 |--④-|
8
④口口口 |①---|
②③①口 |--②-|
口口口口 |③---|
口口口口 |--④-|
9
口①②③ |--①-|
口口口口 |--②-|
口口口口 |③---|
口口口口 |----|
10
口口口口 |----|
口口口口 |----|
口口口口 |----|
口口口口 |----|
11
口口口口 |----|
口口口口 |----|
口口口口 |----|
口口口口 |----|
12
口口口口 |①-②-|
⑤⑥口口 |③---|
口③②① |④---|
口④口口 |⑤-⑥-|
13
口口口口 |①---|
口口①口 |②-③-|
口口②口 |----|
口口③口 |----|
14
口口④口 |①-②-|
①⑤②③ |③---|
口口⑥口 |④-⑤-|
口⑦口口 |⑥-⑦-|
15
口口口口 |①---|
④⑤⑥口 |②-③-|
口②口口 |--④-|
③口①口 |⑤-⑥-|
16
口口口口 |①---|
口口口口 |----|
口②②口 |②---|
口①①口 |----|
17
⑤⑤口口 |①---|
口③②① |②---|
口④口口 |③-④-|
口口口口 |--⑤-|
18
口口②① |----|
口口③口 |①---|
口口口口 |②-③-|
口口④口 |--④-|
19
口口口口 |----|
口口口口 |----|
口口口口 |----|
口口口口 |----|
20
口口口口 |①-②-|
⑥⑦口口 |③---|
①②③口 |④-⑤-|
口⑤④口 |⑥-⑦-|
21
④口口③ |①-②-|
口口①② |--③-|
口口口口 |----|
口口口口 |--④-|
22
口口口④ |--①-|
⑤①②③ |②-③-|
口口口⑥ |④-⑤-|
⑦口口口 |⑥-⑦-|
23
口口口口 |①-②-|
口⑥⑤④ |--③-|
口口②口 |--④-|
口①口③ |⑤-⑥-|
24
口口口口 |①---|
口口口口 |----|
口②②口 |②---|
口①①口 |----|
25
⑤⑤口口 |①---|
①②③口 |②---|
口口④口 |③-④-|
口口口口 |--⑤-|
26
口口②① |----|
口口③口 |①---|
口口口口 |②-③-|
口口④口 |--④-|
27
口口①口 |----|
口②口口 |----|
口口口口 |①---|
口口口口 |②---|
28
口口口口 |①--②|
①口口① |--③-|
口③口口
②口口口

口口口口
⑥⑤口口
口口④口 |④--⑤|
口口口口 |--⑥-|
29
①口口② |①--②|
口口③口 |--③-|
口口口口
口口口口

⑤口口口
⑤④口口
口口口口 |④---|
口口口口 |⑤---|
30
口口口① |①---|
口口口① |--②-|
口②②口 |③---|
口③③口 |----|
31
口②①口 |----|
口③口口 |----|
口口口口 |①--②|
口口口口 |--③-|
32
口口口口 |①---|
口口口口 |--②-|
①口②① |③---|
口③口口 |----|
33
口①②③ |--①-|
口口口口 |--②-|
口口口口 |③---|
口④④口 |④---|
34
口口口口 |①---|
③②②③ |----|
口①①口 |②---|
口口口口 |--③-|
35
①口②① |①---|
口③口口 |----|
口口口口 |②---|
口口口口 |③---|
36
口口口口 |①--②|
①口口① |--③-|
口③口口
口口口②

口口口口
口口⑤⑥
口口④口 |④--⑤|
口口口口 |--⑥-|
37
②⑥⑤① |①--②|
口③④口 |--③-|
口口口口 |④--⑤|
口口口口 |--⑥-|
38
①口口① |①---|
口口口口 |--②-|
口②②口 |③---|
口③③口 |----|
39
口口口口 |----|
口口口口 |--①-|
口口口口 |②-③-|
口③②① |----|
40
口口口口 |①---|
口①口口 |--②-|
口②口口 |③---|
口③口口 |----|
41
①④②③ |--①-|
口口口口 |--②-|
口口口口 |③---|
口口口口 |④---|
42
口口③③ |①---|
口口③③ |--②-|
②②①① |----|
②②①① |③---|
43
①①口口 |①---|
①①口口 |----|
口③③口 |--②-|
口②②口 |--③-|
44
③口口④ |①-②-|
⑤口口② |③---|
①口口⑥ |④-⑤-|
⑦口口口 |⑥-⑦-|
45
③③③③ |①-②-|
口②口口 |--③-|
口口①口 |----|
口口口口 |----|
46
③③口② |①---|
④⑤②口 |②---|
口①口⑥ |③-④-|
①口口口 |⑤-⑥-|
47
口口口口 |①-②-|
口口口口 |--③-|
口口①口 |----|
③口②口 |----|
48
口口口④ |①-②-|
③口口口 |③-④-|
口口口②
口①①口

⑤口口口
口口口⑥
⑦口口口 |⑤-⑥-|
口口⑧口 |⑦-⑧-|
49
③③③③ |①-②-|
口口②口 |--③-|
口①口口 |----|
口口口口 |----|
50
③③⑥② |①---|
④⑤②口 |②---|
口①口口 |③-④-|
①口口口 |⑤-⑥-|
51
⑤⑥口① |①-②-|
口口口② |③-④-|
口口口③ |----|
口口口④ |⑤-⑥-|
52
口口①口 |①---|
口口③② |②---|
口④④口 |③---|
口口口口 |④---|
53
口口③口 |①-②-|
口②口口 |--③-|
口口口口 |----|
口口①口 |----|
54
口①②口 |----|
口③④口 |①-②-|
口口口口 |③-④-|
口⑤⑤口 |--⑤-|
55
口口口① |----|
口口②口 |----|
口口口口 |----|
口口口口 |①-②-|
56
口口口口 |①---|
口口口口 |②---|
口①口口
②口口口

口③口口
口口口口
④④口口 |③---|
口口⑤口 |④-⑤-|
57
口口口口 |①-②-|
口口②口 |--③-|
口口①口 |----|
口③口口 |----|
58
口①⑤口 |①-②-|
⑥口口② |③-④-|
④口口⑧ |⑤-⑥-|
口⑦③口 |⑦-⑧-|
59
①口口口 |①-②-|
⑤②口⑤ |③-④-|
⑤口③⑤ |----|
口口口④ |⑤---|
60
口口口口 |①---|
口口口口 |--②-|
口口口④ |③---|
①口②③ |--④-|
61
口口口口 |--①-|
④口口口 |--②-|
③②①口 |③---|
口口口口 |--④-|
62
④口口口 |①---|
口①③② |--②-|
口口口口 |③---|
口口口口 |--④-|
63
口①②③ |--①-|
口口口口 |--②-|
口口口口 |③---|
口口口口 |----|
64
口口口口 |①---|
口口口口 |--②-|
④口口口 |③---|
③②口① |--④-|
65
口口口口 |--①-|
口口口④ |--②-|
口①②③ |③---|
口口口口 |--④-|
66
④口口口 |①---|
②③①口 |--②-|
口口口口 |③---|
口口口口 |--④-|
67
口①②③ |--①-|
口口口口 |--②-|
口口口口 |③---|
口口口口 |----|
68
口口口口 |----|
口口口口 |----|
口口口口 |----|
口口口口 |----|
69
口口口口 |----|
口口口口 |----|
口口口口 |----|
口口口口 |----|
70
口口口口 |①---|
①①①① |----|
口口口口 |----|
口口口口 |----|


不确定度: 0

最終更新:2012年11月16日 18:52