夢見る少女じゃいられない
相川七瀬

EXTREME

Level: 8
BPM: 158
Notes: 491

1
口口口口 |----|
口口口口 |----|
口口口口 |----|
口口口口 |----|
2
口口口口 |①---|
口口④④ |--②-|
③③口口 |③---|
②②①① |--④-|
3
③③②② |--①-|
①①口口 |--②-|
口口④④ |③---|
口口口口 |--④-|
4
口口口口 |①---|
③③①① |--②-|
②②口口 |③---|
口④④口 |--④-|
5
口③③口 |--①-|
④②②④ |--②-|
④①①④ |③---|
口口口口 |④---|
6
口⑥口口 |①---|
口⑤口口 |--②-|
口④口口 |③-④-|
口③②① |⑤-⑥-|
7
口口①② |--①-|
口口口③ |--②-|
口⑤④口 |③-④-|
口⑥口口 |⑤-⑥-|
8
口口口口 |①---|
口口口⑥ |--②-|
②③④⑤ |③-④-|
①口口口 |⑤-⑥-|
9
口口④口 |--①-|
③②①⑤ |--②-|
口口⑥口 |③-④-|
口口口口 |⑤-⑥-|
10
⑧口口⑦ |①-②-|
⑥口口⑤ |③-④-|
④口口③ |⑤-⑥-|
②口口① |⑦-⑧-|
11
口口口口 |①--②|
③口③口 |--③-|
②③口②
①②②①

口口口④
口口口口
口口口口 |----|
口口口④ |④---|
12
口口③口 |①-②-|
口⑤②口 |③---|
口④①口 |④---|
口口⑥口 |⑤-⑥-|
13
口口口口 |①---|
③口②① |②-③-|
口口口口 |----|
口口口口 |----|
14
④⑤①口 |①-②-|
口②口口 |③---|
口⑥③口 |④-⑤-|
口⑦口口 |⑥-⑦-|
15
口④口① |①---|
口口⑤口 |②-③-|
口⑥口② |--④-|
口口口③ |⑤-⑥-|
16
②口口口 |①---|
口口口口 |----|
口口口口 |②---|
口①口口 |----|
17
口口口③ |①---|
①口口④ |②---|
②口⑤口 |③-④-|
口口口口 |--⑤-|
18
口口口口 |----|
口口口口 |①---|
口②口④ |②-③-|
口①③口 |--④-|
19
①②③④ |①-②-|
⑤⑥⑦⑧ |③-④-|
口口口口 |⑤-⑥-|
口口口口 |⑦-⑧-|
20
口①②③ |①-②-|
口口口口 |③---|
口⑤口口 |④-⑤-|
口④⑦⑥ |⑥-⑦-|
21
口口口口 |①-②-|
口③③④ |--③-|
②口口口 |----|
①口口口 |--④-|
22
口口④口 |--①-|
①②③⑤ |②-③-|
口口⑥口 |④-⑤-|
⑦口口口 |⑥-⑦-|
23
②②⑥③ |①-②-|
口④口⑤ |--③-|
①口口口 |--④-|
口口口口 |⑤-⑥-|
24
口口口口 |①---|
口口口口 |----|
②②①口 |②---|
口口①口 |----|
25
②口口口 |①---|
①③口口 |②---|
口口④口 |③-④-|
口口口⑤ |--⑤-|
26
口口口① |----|
口口②口 |①---|
口③口口 |②-③-|
④口口口 |--④-|
27
口①①口 |----|
口②②口 |----|
口口口口 |①---|
口口口口 |②---|
28
口口口口 |①--②|
口口口口 |--③-|
①①①①
口口③②

口口口口
口口口口
⑥口口口 |④--⑤|
⑤④口口 |--⑥-|
29
口④③口 |①--②|
⑤②口口 |--③-|
⑤口①口 |④---|
⑤口口口 |⑤---|
30
口口口口 |①---|
口口口① |--②-|
口②②① |③---|
口③③① |----|
31
口②①口 |----|
口③口口 |----|
口口口口 |①--②|
口口口口 |--③-|
32
口口口口 |①---|
口口口口 |--②-|
①口口① |③---|
口③②口 |----|
33
口①②③ |--①-|
口口口口 |--②-|
口口口口 |③---|
口口④口 |④---|
34
口②口口 |①---|
口②③③ |----|
口①口口 |②---|
口①口口 |--③-|
35
口口①① |①---|
②口口③ |----|
②口口③ |②---|
口口口口 |③---|
36
口⑥口口 |①--②|
③口口⑤ |--③-|
口①①口 |④--⑤|
④①①② |--⑥-|
37
④口③⑤ |①--②|
⑥口口口 |--③-|
口②①⑥ |④--⑤|
⑥口口口 |--⑥-|
38
口口口口 |①---|
口口口① |--②-|
①②②口 |③---|
口③③① |----|
39
口①口① |----|
口口①口 |--①-|
口口②口 |②-③-|
口③口③ |----|
40
口口口口 |①---|
③①②① |--②-|
口口口口 |③---|
口口口口 |----|
41
口口④口 |--①-|
口③口口 |--②-|
口口②口 |③---|
口①口口 |④---|
42
③③口口 |①---|
③③口口 |--②-|
①①②② |----|
①①②② |③---|
43
口口①① |①---|
口口①① |----|
口口口口
口口口口

口③③口
口口口口
口②②口 |--②-|
口口口口 |--③-|
44
③口口③ |①-②-|
②①①口 |③---|
口口口口
口②②①

口⑤⑤口
口⑥⑦口
④口口④ |④-⑤-|
⑥口口⑦ |⑥-⑦-|
45
③③③③ |①-②-|
①口口② |--③-|
口②②口 |----|
口①①口 |----|
46
口口口② |①---|
口①②② |②---|
①①②口
①口口口

③⑤④口
口⑥口口
口⑥口口 |③-④-|
口④⑤③ |⑤-⑥-|
47
③口口② |①-②-|
口口①口 |--③-|
口口①口 |----|
②口口③ |----|
48
③口口③ |①-②-|
口①①② |③-④-|
口④④口
①②②口

口⑥⑥口
口⑧⑦口
⑤口口⑤ |⑤-⑥-|
⑧口口⑦ |⑦-⑧-|
49
③③③③ |①-②-|
②口口① |--③-|
口②②口 |----|
口①①口 |----|
50
口口口② |①---|
口①②② |②---|
①①②口
①口口口

口④④口
⑤⑥口口
⑤⑥口口 |③-④-|
口③③口 |⑤-⑥-|
51
⑤⑥口口 |①-②-|
口口①② |③-④-|
口口①② |----|
④③③④ |⑤-⑥-|
52
口口①口 |①---|
口口③② |②---|
口④④口 |③---|
口口口口 |④---|
53
口口③口 |①-②-|
口②口口 |--③-|
口口口口 |----|
口口①口 |----|
54
①口口② |----|
③口口④ |①-②-|
口⑤⑤口 |③-④-|
口口口口 |--⑤-|
55
口口①口 |----|
口口②口 |----|
口口口口 |----|
口口口口 |①-②-|
56
口③口口 |①---|
口④口口 |②---|
口④①口 |③---|
口④②⑤ |④-⑤-|
57
口口口口 |①-②-|
口口口② |--③-|
口口③① |----|
口口口口 |----|
58
⑤①③⑦ |①-②-|
③⑥⑧① |③-④-|
②⑧⑥④ |⑤-⑥-|
⑦④②⑤ |⑦-⑧-|
59
④②①口 |①-②-|
④⑤⑤④ |③-④-|
③⑤⑤③ |----|
口②①③ |⑤---|
60
口口⑥口 |①---|
口口⑤口 |--②-|
口口④口 |③-④-|
①②③口 |⑤-⑥-|
61
②①口口 |--①-|
③口口口 |--②-|
口④⑤口 |③-④-|
口口⑥口 |⑤-⑥-|
62
口口口口 |①---|
口口⑥口 |--②-|
⑤④③② |③-④-|
口口口① |⑤-⑥-|
63
②③口口 |--①-|
①④⑤口 |--②-|
口口⑥口 |③-④-|
口口口口 |⑤-⑥-|
64
口⑥口口 |①---|
口⑤口口 |--②-|
口④口① |③-④-|
口③②口 |⑤-⑥-|
65
口口①② |--①-|
口口口③ |--②-|
口口⑤④ |③-④-|
口⑥口口 |⑤-⑥-|
66
口口口口 |①---|
口⑥口口 |--②-|
②③④⑤ |③-④-|
①口口口 |⑤-⑥-|
67
口口③② |--①-|
口⑤④① |--②-|
口⑥口口 |③-④-|
口口口口 |⑤-⑥-|
68
口口口口 |①---|
口口口口 |--②-|
①③口① |--③-|
口口②口 |----|
69
口口口口 |①--②|
口③口③ |--③-|
②口③②
①②②①

⑤口④口
口口口口
口口口口 |--④-|
⑤口口口 |⑤---|
70
口口口口 |①---|
①口①口 |----|
口①口① |----|
口口口口 |----|


不确定度: 0

最終更新:2012年11月16日 18:51