BASIC

Level: 3
BPM: 171
Notes: 167

1
口口口口 |----|
口口口口 |----|
口口口口 |----|
口口口口 |----|
2
口口口口 |①---|
口口口口 |----|
②口口口 |②---|
口①①口 |----|
3
口口口口 |①---|
口口口② |----|
口①①口 |②---|
口口口口 |----|
4
②口口口 |①---|
口①①口 |----|
口口口口 |②---|
口口口口 |----|
5
口①①口 |①---|
口口口② |----|
口口口口 |②---|
口口口口 |----|
6
口口口口 |①---|
口①①口 |----|
②口口口 |②---|
口口口口 |----|
7
口口口口 |①---|
口口口口 |----|
口①①口 |②---|
口口口② |----|
8
口口口口 |①---|
口③③口 |--②-|
口②②口 |----|
口①①口 |③---|
9
口口口口 |----|
口口口口 |----|
口口口口 |----|
口口口口 |----|
10
口②②口 |①---|
口①①口 |----|
口口口口 |②---|
口口口口 |----|
11
口口口① |①---|
口口口② |----|
口口口口 |②---|
口口口口 |----|
12
口口口口 |①---|
口口口口 |----|
口口口① |②---|
口口口② |----|
13
口口口口 |①---|
口口口口 |----|
口口口口 |②---|
口②①口 |----|
14
口口口口 |①---|
口口口口 |----|
②口口口 |②---|
①口口口 |----|
15
②口口口 |①---|
①口口口 |----|
口口口口 |②---|
口口口口 |----|
16
口①②口 |①---|
口口口口 |----|
口口口口 |②---|
口口口口 |----|
17
口口口口 |①---|
口口①口 |----|
口口②口 |②---|
口口口口 |----|
18
口口口口 |①---|
口口口口 |----|
口口口口 |----|
口①①口 |----|
19
口口口口 |①---|
口口口口 |----|
①口口① |----|
口口口口 |----|
20
口口口口 |①---|
口口口口 |----|
①口口① |----|
口口口口 |----|
21
口口口口 |①---|
口①①口 |----|
口口口口 |----|
口口口口 |----|
22
口口口口 |①---|
口①①口 |----|
口口口口 |----|
口口口口 |----|
23
口②①口 |①---|
口口③口 |②---|
口口口口 |③---|
口口口口 |----|
24
口口口口 |①---|
口口口口 |----|
口①①口 |----|
口口口口 |----|
25
口口口口 |①---|
①口口① |----|
口口口口 |----|
口口口口 |----|
26
口口口口 |①---|
①口口① |----|
口口口口 |----|
口口口口 |----|
27
口①①口 |①---|
口口口口 |----|
口口口口 |----|
口口口口 |----|
28
口口口口 |①---|
口①①口 |----|
口口口口 |----|
口口口口 |----|
29
口口口口 |①---|
口口口口 |----|
①口口① |----|
口口口口 |----|
30
口口口口 |①---|
口口口口 |----|
①口口① |----|
口口口口 |----|
31
口口③口 |①---|
口②①口 |②---|
口口口口 |③---|
口口口口 |----|
32
口口口口 |①---|
口①①口 |----|
口口口口 |----|
口口口口 |----|
33
口口口口 |①---|
口口口口 |----|
①口口① |----|
口口口口 |----|
34
口口口口 |①---|
口③口口 |----|
口口②口 |②---|
口口①口 |③---|
35
口口口② |①---|
口口①③ |----|
口口口口 |②---|
口口口口 |③---|
36
口口口口 |①---|
口口口口 |②---|
口口口① |③---|
口④③② |④---|
37
口口口口 |①---|
②口口口 |----|
口口口口 |----|
①口口口 |②---|
38
①口口口 |①---|
口②口口 |----|
口口口口 |----|
口口口口 |②---|
39
口①口口 |①---|
口口②口 |----|
口口口口 |----|
口口口口 |②---|
40
口口①口 |①---|
口口③② |--②-|
口口口口 |----|
口口口口 |③---|
41
口口口口 |----|
口口口口 |----|
口口口口 |----|
口口口口 |----|
42
口口口口 |①---|
口口口口 |----|
②口口口 |②---|
口①①口 |----|
43
口口口口 |①---|
口口口② |----|
口①①口 |②---|
口口口口 |----|
44
②口口口 |①---|
口①①口 |----|
口口口口 |②---|
口口口口 |----|
45
口①①口 |①---|
口口口② |----|
口口口口 |②---|
口口口口 |----|
46
口口口口 |①---|
口①①口 |----|
②口口口 |②---|
口口口口 |----|
47
口口口口 |①---|
口口口口 |----|
口①①口 |②---|
口口口② |----|
48
口口口口 |①---|
口③③口 |--②-|
口②②口 |----|
口①①口 |③---|
49
口口口口 |----|
口口口口 |----|
口口口口 |----|
口口口口 |----|
50
口口口口 |①---|
口口口口 |----|
口口口② |②---|
口①①口 |----|
51
口口口口 |①---|
②口口口 |----|
口①①口 |②---|
口口口口 |----|
52
口口口② |①---|
口①①口 |----|
口口口口 |②---|
口口口口 |----|
53
口①①口 |①---|
②口口口 |----|
口口口口 |②---|
口口口口 |----|
54
口口口口 |①---|
口①①口 |----|
口口口② |②---|
口口口口 |----|
55
口口口口 |①---|
口口口口 |----|
口①①口 |②---|
②口口口 |----|
56
口口口口 |①---|
口③③口 |--②-|
口②②口 |----|
口①①口 |③---|
57
口口口口 |----|
口口口口 |----|
口口口口 |----|
口口口口 |----|
58
口②②口 |①---|
口①①口 |----|
口口口口 |②---|
口口口口 |----|
59
口口②① |①---|
口口口口 |----|
口口口口 |②---|
口口口口 |----|
60
②①口口 |①---|
口口口口 |----|
口口口口 |②---|
口口口口 |----|
61
口口口口 |①---|
①口口口 |----|
②口口口 |②---|
口口口口 |----|
62
口口口口 |①---|
口口口口 |②---|
口③④口 |③---|
①②口口 |④---|
63
口口口口 |①---|
口口口口 |----|
口口口口 |②---|
口口①② |----|
64
口口口口 |①---|
口口口② |----|
口口口① |②---|
口口口口 |----|
65
口①①口 |--①-|
口②②口 |----|
口③③口 |②---|
口口口口 |--③-|


不确定度: 0

最終更新:2012年11月16日 18:51