ADVANCED

Level: 6
BPM: 171
Notes: 349

1
口口口口 |----|
口③口口 |----|
口口②口 |--①-|
口①口口 |②-③-|
2
口①①口 |①---|
②口口口 |--②-|
③口口口 |③---|
口④④口 |--④-|
3
口①①口 |①---|
③口口② |--②-|
口④⑤口 |③---|
口口口口 |④-⑤-|
4
口口口口 |①---|
口口口口 |--②-|
口口口口
②①①②

口口口口
③口口③
口口口口 |③---|
口口④口 |--④-|
5
口口②口 |①-②-|
口①口口 |--③-|
口①口口
口口口③

口口口口
口口⑥⑤
口⑦口④ |④-⑤-|
口口口口 |⑥-⑦-|
6
口口口口 |①---|
⑤口③口 |--②-|
⑥④口② |③-④-|
口①①口 |⑤-⑥-|
7
口⑤口⑥ |①---|
口口口④ |--②-|
口③口口 |③-④-|
口①①② |⑤-⑥-|
8
口口①口 |①---|
口口①口 |②-③-|
口口口口 |--④-|
②③⑤④ |⑤---|
9
口口口口 |----|
口口口口 |----|
口口口口 |----|
口①①口 |①---|
10
口⑤⑤口 |①---|
②④④③ |②-③-|
口①①口 |--④-|
口口口口 |⑤---|
11
口口口口 |①---|
口口口口 |②---|
口③④口 |③---|
口②①口 |④---|
12
口③④口 |①---|
口②①口 |②---|
口口口口 |③---|
口口口口 |④---|
13
口口口口 |①-②-|
⑥口口③ |③---|
口⑤②口 |④-⑤-|
④口口① |⑥---|
14
口口①口 |①---|
口②口口 |②---|
口口③口 |③---|
口④口口 |④---|
15
④口口口 |①---|
口口口③ |②---|
②口口口 |③---|
口口口① |④---|
16
口口口① |①---|
②口口口 |②---|
口口口③ |③---|
④口口口 |④---|
17
口口口口 |①---|
口口口口 |②---|
②口口口 |③---|
口③④① |④---|
18
口口②口 |①---|
口③口口 |--②-|
口①口口 |③---|
口④口口 |--④-|
19
②口口③ |①---|
口口口口 |----|
口口①④ |--②-|
口口口口 |③-④-|
20
口口④口 |①---|
③口口② |--②-|
①口口口 |③---|
口口口口 |--④-|
21
②③④口 |①---|
口①口口 |----|
口口口口 |--②-|
口口口口 |③-④-|
22
口口口① |①---|
口口口口 |--②-|
口②③口 |③---|
口口口④ |④---|
23
口口口③ |①---|
口⑤④② |②---|
口口口① |③---|
口口口口 |④-⑤-|
24
口口口口 |①---|
①口口口 |②---|
②③④口 |③---|
口口口口 |④---|
25
口口口④ |①---|
口口③② |----|
口口口① |--②-|
口口口口 |③-④-|
26
口口①口 |①---|
口②口⑤ |--②-|
口②口④ |③---④-|
口口口③ |--⑤---|
27
③②口① |①---|
口④口口 |----|
口口口口 |--②-|
口口口口 |③-④-|
28
口口口口 |①---|
①口②口 |--②-|
口口②口
口口口口

口口口口
⑤口口口
④口口口 |③---④-|
③口口口 |--⑤---|
29
①口口口 |①---|
口口口④ |----|
口口口③ |--②-|
口口②口 |③-④-|
30
口口口① |①---|
口口②口 |--②-|
口口③口 |③---|
④口口口 |④---|
31
口③④口 |①---|
②口口口 |②---|
口①口口 |③---|
口口口口 |④---|
32
口口口口 |①---|
口口口① |----|
口③口口 |②---|
口口②口 |③---|
33
口口口口 |①---|
口①①口 |----|
口口口口 |----|
口口口口 |----|
34
口③④① |①---|
口⑤②口 |----|
口口口口 |②-③-|
口口口口 |④-⑤-|
35
口口口口 |①---|
口口口口 |----|
口①①口 |②---|
口②口③ |③---|
36
口④口⑥ |①---②-|
口②口③ |--③---|
口⑤口① |④---⑤-|
口口口口 |--⑥---|
37
②③口口 |①---|
④口①口 |----|
口口口口 |--②-|
口口口口 |③-④-|
38
口口⑤④ |①---|
口①口⑥ |②-③-|
②②口口 |--④-|
③③口口 |⑤-⑥-|
39
口口口口 |①---|
⑥口①口 |②-③-|
⑤口②② |--④-|
④口③③ |⑤-⑥-|
40
①②口口 |①---|
口口③口 |②-③-|
口④④口 |--④-|
口⑤⑤口 |⑤---|
41
口口口口 |----|
口③口口 |----|
口口②口 |--①-|
口①口口 |②-③-|
42
口①①口 |①---|
②口口口 |--②-|
③口口口 |③---|
口④④口 |--④-|
43
口①①口 |①---|
③口口② |--②-|
口④⑤口 |③---|
口口口口 |④-⑤-|
44
口口口口 |①---|
口口口口 |--②-|
口口口口
②①①②

口口口口
③口口③
口口口口 |③---|
口口④口 |--④-|
45
口口②口 |①-②-|
口①口口 |--③-|
口①口口
口口口③

口口口口
口口⑥⑤
口⑦口④ |④-⑤-|
口口口口 |⑥-⑦-|
46
口口口口 |①---|
⑤口③口 |--②-|
⑥④口② |③-④-|
口①①口 |⑤-⑥-|
47
口⑤口⑥ |①---|
口口口④ |--②-|
口③口口 |③-④-|
口①①② |⑤-⑥-|
48
口口①口 |①---|
口口①口 |②-③-|
口口口口 |--④-|
②③⑤④ |⑤---|
49
口口口口 |----|
口③口口 |----|
口口②口 |--①-|
口①口口 |②-③-|
50
口①①口 |①---|
②口口口 |--②-|
③口口口 |③---|
口④④口 |--④-|
51
口①①口 |①---|
③⑤④② |--②-|
口口⑥口 |③-④-|
口口口口 |⑤-⑥-|
52
口口口口 |①---|
口口口口 |--②-|
口口口口
②①①②

口口口口
③口口③
口口口口 |③---|
口口④口 |--④-|
53
口口②口 |①-②-|
口①口口 |--③-|
口①口口
口口口③

口口口口
口口⑥⑤
口⑦口④ |④-⑤-|
口口口口 |⑥-⑦-|
54
口口口口 |①---|
⑤口③口 |--②-|
⑥④口② |③-④-|
口口①口 |⑤-⑥-|
55
口⑤口⑥ |①---|
口口口④ |--②-|
口③口口 |③-④-|
口①①② |⑤-⑥-|
56
口口①口 |①---|
口口①口 |②-③-|
口口口口 |--④-|
②③⑤④ |⑤---|
57
口口口口 |----|
口口口口 |----|
口口口口 |----|
口①①口 |①---|
58
口⑤⑤口 |①---|
②④④③ |②-③-|
口①①口 |--④-|
口口口口 |⑤---|
59
口口口口 |①---|
口口口口 |②---|
口③④口 |③---|
口②①口 |④---|
60
口③④口 |①---|
口②①口 |②---|
口口口口 |③---|
口口口口 |④---|
61
口口口口 |①-②-|
⑥口口③ |③---|
口⑤②口 |④-⑤-|
④口口① |⑥---|
62
③口口① |①---|
④口口② |②---|
口口口口 |③---|
口口口口 |④---|
63
口口口口 |①-②-|
口④⑥⑤ |③---|
口口③③ |④---|
①②口口 |⑤-⑥-|
64
口口①口 |--①-|
口②⑦口 |②-③-|
口⑥③口 |④-⑤-|
口④⑤口 |⑥-⑦-|
65
②②口① |①-②-|
④④口③ |--③-|
⑥⑥口⑤ |④---|
口口口口 |⑤-⑥-|


不确定度: 0

最終更新:2012年11月16日 18:51