EXTREME

Level: 7
BPM: 171
Notes: 501

1
口口口口 |----|
口口③口 |----|
口口口② |--①-|
口口①口 |②-③-|
2
①①①① |①---|
②口口口 |--②-|
③口口口 |③---|
口④④口 |--④-|
3
①口口① |①---|
②①①② |--②-|
口口口口
口口口口

口③③口
口④口口
⑤口口口 |③---|
口口口口 |④-⑤-|
4
口口口口 |①---|
口口口口 |--②-|
口①①口
②①①②

口口口口
③口口③
口口口口 |③---|
口口④口 |--④-|
5
口②口口 |①-②-|
口①①口 |--③-|
口①①口
③口口③

⑤口口⑤
④⑥⑥④
口⑦⑦口 |④-⑤-|
口口口口 |⑥-⑦-|
6
⑤口③口 |①---|
⑥④口② |--②-|
口口口口 |③-④-|
口①①口 |⑤-⑥-|
7
⑤口口⑥ |①---|
口口口④ |--②-|
③①①口 |③-④-|
口①①② |⑤-⑥-|
8
口①①口 |①---|
口①①口 |②-③-|
口③⑤口 |--④-|
②口口④ |⑤---|
9
口口口口 |①---|
口口口口 |----|
①口口①
口①①口

口口口口
口口口口
口口口口 |----|
口②②口 |②---|
10
②口口③ |①---|
①口口① |②-③-|
口①①口
口口口口

口口口口
⑤④④⑤
⑤口口⑤ |--④-|
口口口口 |⑤---|
11
②④口口 |①-②-|
口⑥口口 |③-④-|
口⑧⑤⑦ |⑤-⑥-|
口口③① |⑦-⑧-|
12
口口口口 |①-②-|
⑧口口口 |③-④-|
⑥口⑤⑦ |⑤-⑥-|
④②③① |⑦-⑧-|
13
口①②口 |①-②-|
口③③③ |③---|
口④⑤口 |④-⑤-|
⑥⑥⑥口 |⑥---|
14
口②①口 |①-②-|
口④③口 |③-④-|
口⑥⑤口 |⑤-⑥-|
口⑧⑦口 |⑦-⑧-|
15
④口口⑧ |①-②-|
③口口⑦ |③-④-|
②口口⑥ |⑤-⑥-|
①口口⑤ |⑦-⑧-|
16
口②①口 |①-②-|
口④③口 |③-④-|
口⑥⑤口 |⑤-⑥-|
口⑧⑦口 |⑦-⑧-|
17
口⑧口口 |①-②-|
⑤⑥⑦⑤ |③-④-|
③口口④ |⑤-⑥-|
①口口② |⑦-⑧-|
18
②口①② |①---|
③口口③ |--②-|
口口口口 |③---|
④口口④ |--④-|
19
③口口④ |①---|
口③④口 |----|
①②口① |--②-|
②口口口 |③-④-|
20
口④④口 |①---|
③口口② |--②-|
③口①② |③---|
口口口① |--④-|
21
口②口口 |①---|
口③口口 |----|
④口口口 |--②-|
口①①口 |③-④-|
22
口口口口 |①---|
口口口口 |--②-|
口②③口 |③---|
①口口④ |④---|
23
④⑤口③ |①---|
口口口② |②---|
口口口① |③---|
口口口口 |④-⑤-|
24
口口①口 |①---|
②②口口 |②---|
④④口口 |③---|
③③③口 |④---|
25
口③口② |①---|
①口口④ |----|
口口口口 |--②-|
口口口口 |③-④-|
26
口口口口 |①---|
口①⑤口 |--②-|
口口④口 |③---④-|
口口③② |--⑤---|
27
口口①口 |①---|
口口口口 |----|
④口口口 |--②-|
②口③口 |③-④-|
28
②③口口 |①---|
口④口口 |--②-|
口⑤①口 |③---④-|
口口口口 |--⑤---|
29
口口口口 |①---|
口口口④ |----|
口口口③ |--②-|
口①②口 |③-④-|
30
口口口① |①---|
口口②口 |--②-|
口口③口 |③---|
④④口口 |④---|
31
③③④④ |①---|
②②口口 |②---|
①①口口 |③---|
口口口口 |④---|
32
口口口口 |①---|
口口①① |----|
口口③③ |②---|
口口②② |③---|
33
口口口口 |①---|
口④①① |----|
口口③口 |②-③-|
口②口口 |④---|
34
口口②① |①---|
口③口口 |----|
口口④口 |②-③-|
口⑤口口 |④-⑤-|
35
口口口口 |①---|
口口口口 |----|
口口口口 |②---|
②口①③ |③---|
36
⑥②口口 |①---②-|
口口③⑤ |--③---|
④口口① |④---⑤-|
口口口口 |--⑥---|
37
②③口口 |①---|
④口口口 |----|
口口①口 |--②-|
口口口口 |③-④-|
38
口口口口 |①---|
口①口口 |②-③-|
③③口⑥ |--④-|
②②⑤④ |⑤-⑥-|
39
口口②② |①---|
⑥口③③ |②-③-|
口⑤①口 |--④-|
④口口口 |⑤-⑥-|
40
口①②② |①---|
口口③③ |②-③-|
口口⑤⑤ |--④-|
口口④④ |⑤---|
41
口口口口 |----|
口口③口 |----|
口口口② |--①-|
口口①口 |②-③-|
42
①①①① |①---|
②口口口 |--②-|
③口口口 |③---|
口④④口 |--④-|
43
①口口① |①---|
②①①② |--②-|
口口口口
口口口口

口③③口
口④口口
⑤口口口 |③---|
口口口口 |④-⑤-|
44
口口口口 |①---|
口口口口 |--②-|
口①①口
②①①②

口口口口
③口口③
口口口口 |③---|
口口④口 |--④-|
45
口②口口 |①-②-|
口①①口 |--③-|
口①①口
③口口③

⑤口口⑤
④⑥⑥④
口⑦⑦口 |④-⑤-|
口口口口 |⑥-⑦-|
46
⑤口③口 |①---|
⑥④口② |--②-|
口口口口 |③-④-|
口①①口 |⑤-⑥-|
47
⑤口口⑥ |①---|
口口口④ |--②-|
③①①口 |③-④-|
口①①② |⑤-⑥-|
48
口①①口 |①---|
口①①口 |②-③-|
口③⑤口 |--④-|
②口口④ |⑤---|
49
口口口口 |----|
口口③口 |----|
口口口② |--①-|
口口①口 |②-③-|
50
①①①① |①---|
②口口口 |--②-|
③口口口 |③---|
口④④口 |--④-|
51
①口口① |①---|
②①①② |--②-|
口口口口
口口口口

口③③口
口⑥口口
⑤口口④ |③-④-|
口口口口 |⑤-⑥-|
52
口口口口 |①---|
口口口口 |--②-|
口①①口
②①①②

口口口口
③口口③
口口口口 |③---|
口口④口 |--④-|
53
口②口口 |①-②-|
口①①口 |--③-|
口①①口
③口口③

⑤口口⑤
④⑥⑥④
口⑦⑦口 |④-⑤-|
口口口口 |⑥-⑦-|
54
⑤口③口 |①---|
⑥④口② |--②-|
口口口口 |③-④-|
口①①口 |⑤-⑥-|
55
⑤口口⑥ |①---|
口口口④ |--②-|
③①①口 |③-④-|
口①①② |⑤-⑥-|
56
口①①口 |①---|
口①①口 |②-③-|
口③⑤口 |--④-|
②口口④ |⑤---|
57
口口口口 |----|
口口口口 |----|
口口口口 |----|
口①①口 |①---|
58
②口口③ |①---|
①口口① |②-③-|
口①①口
口口口口

口口口口
⑤④④⑤
⑤口口⑤ |--④-|
口口口口 |⑤---|
59
②④口口 |①-②-|
口⑥口口 |③-④-|
口⑧⑤⑦ |⑤-⑥-|
口口③① |⑦-⑧-|
60
口口口口 |①-②-|
⑧口口口 |③-④-|
⑥口⑤⑦ |⑤-⑥-|
④②③① |⑦-⑧-|
61
口①②口 |①-②-|
口③③口 |③---|
口④⑤口 |④-⑤-|
口⑥⑥口 |⑥---|
62
⑦⑨⑩⑧ |①②③④|
⑤⑪⑫⑥ |⑤⑥⑦⑧|
③⑬⑭④ |⑨⑩⑪⑫|
①⑮⑯② |⑬⑭⑮⑯|
63
口⑤⑥口 |①-②-|
③口口④ |③---|
③口口④ |④---|
①口口② |⑤-⑥-|
64
⑧口口⑦ |①-②-|
⑥口口⑤ |③-④-|
口④③口 |⑤-⑥-|
口②①口 |⑦-⑧-|
65
⑤③③⑤ |①-②-|
口①①口 |--③-|
口②②口 |④---|
⑥④④⑥ |⑤-⑥-|


不确定度: 0

最終更新:2012年11月16日 18:51