アンビリーバボー feat.TAKUYA
mihimaru GT

BASIC

Level: 1
BPM: 110
Notes: 158

1
口口口口 |----|
口口口口 |----|
口口口口 |----|
口口口口 |----|
2
口①口口 |①---|
口口②口 |----|
口口口口 |②---|
口口口口 |----|
3
口口口口 |①---|
口口口口 |----|
口①口口 |②---|
口②②口 |----|
4
口口口口 |①---|
口②口口 |----|
口口①口 |②---|
口口口口 |----|
5
口①①口 |①---|
口②②口 |----|
口口口口 |②---|
口口口口 |----|
6
口口口口 |①---|
口③③口 |②---|
①④④② |③---|
口口口口 |④---|
7
①②③④ |①---|
口口口口 |②---|
口口口口 |③---|
口口口口 |④---|
8
口口口口 |①---|
口①②口 |----|
口口口口 |②---|
口口口口 |----|
9
口口口口 |①---|
口口口口 |----|
口①②口 |②---|
口口口口 |----|
10
口口口口 |①---|
口③③口 |②---|
①④④② |③---|
口口口口 |④---|
11
①②③④ |①---|
口口口口 |②---|
口口口口 |③---|
口口口口 |④---|
12
口口口口 |①---|
口①①口 |----|
口②②口 |②---|
口口口口 |----|
13
口口口口 |①---|
口④④口 |②---|
②③③② |③---|
口①①口 |④---|
14
口①①口 |①---|
②口口口 |----|
口口口口 |②---|
口口口口 |----|
15
口口口口 |①---|
口①②口 |----|
口口口口 |②---|
口口口口 |----|
16
口口口口 |①---|
口口口① |----|
口口口② |②---|
口口口口 |----|
17
口口口口 |①---|
口口口口 |----|
口②①口 |②---|
口口口口 |----|
18
口②②口 |①---|
口口口口 |----|
①口口口 |②---|
口口口口 |----|
19
口口口口 |①---|
口②②口 |----|
口口口① |②---|
口口口口 |----|
20
口口口口 |①---|
口口口口 |②---|
①②③④ |③---|
口口口口 |④---|
21
口口口口 |①---|
口口口口 |②---|
口口口口 |③---|
①②③④ |④---|
22
口口口口 |①---|
口口口口 |----|
②①①③ |②---|
口口口口 |③---|
23
口口口口 |①---|
②①①③ |----|
口口口口 |②---|
口口口口 |③---|
24
口口口口 |①---|
口口口口 |②---|
①口口口 |③---|
②③④口 |④---|
25
口④④口 |①---|
口③③口 |②---|
口口口② |③---|
口口口① |④---|
26
口口口口 |①---|
口①②③ |②---|
口口口口 |③---|
口口口口 |----|
27
口口口口 |①---|
口口口口 |②---|
③②①口 |③---|
口口口口 |----|
28
口口口口 |①---|
口口口口 |----|
口②②口 |②---|
口①①口 |----|
29
口②②口 |①---|
口①①口 |----|
口口口口 |②---|
口口口口 |----|
30
口口口口 |①---|
口①②③ |②---|
口口口口 |③---|
口口口口 |----|
31
口口口口 |①---|
口口口口 |②---|
③②①口 |③---|
口口口口 |----|
32
口口口口 |①---|
口①①口 |----|
口①①口 |----|
口口口口 |----|
33
口口口口 |①---|
①②②① |----|
①②②① |----|
口口口口 |②---|
34
口口口口 |①---|
口③③口 |②---|
①④④② |③---|
口口口口 |④---|
35
①②③④ |①---|
口口口口 |②---|
口口口口 |③---|
口口口口 |④---|
36
口口口口 |①---|
口①②口 |----|
口口口口 |②---|
口口口口 |----|
37
口口口口 |①---|
口口口口 |----|
口①②口 |②---|
口口口口 |----|
38
口口口口 |①---|
口③③口 |②---|
①④④② |③---|
口口口口 |④---|
39
①②③④ |①---|
口口口口 |②---|
口口口口 |③---|
口口口口 |④---|
40
口口口口 |①---|
口①①口 |----|
口②②口 |②---|
口口口口 |----|
41
口口口口 |①---|
口④④口 |②---|
②③③② |③---|
口①①口 |④---|
42
口①①口 |①---|
口口口口 |----|
口口口口 |----|
口口口口 |----|


不确定度: 0

最終更新:2012年11月16日 18:51