アンビリーバボー feat.TAKUYA
mihimaru GT

ADVANCED

Level: 6
BPM: 110
Notes: 376

1
口口口口 |----|
口口口口 |----|
口口口口 |----|
口口口口 |----|
2
口①②口 |①---|
①②口口 |----|
口口口口 |②---|
口口口口 |----|
3
口口口① |①---|
口口①口 |----|
口口口口
口口口口

⑤口口⑤
④口口④
③口口③ |②③-④|
口②②口 |-⑤--|
4
口口口口 |①---|
口口口口 |----|
口①②口 |②---|
①②口口 |----|
5
⑤口口口 |①---|
口口口④ |----|
③口口① |②-③-|
口口①② |④-⑤-|
6
⑥④口⑦ |①---|
③口⑤③ |②--③|
②②②② |-④⑤-|
口①①口 |⑥-⑦-|
7
口口口口 |①②③④|
口⑦⑧口 |-⑤-⑥|
⑤⑨⑩⑥ |-⑦⑧-|
①②③④ |⑨-⑩-|
8
①②③④ |--①②|
⑤口口口 |③④-⑤|
口⑥⑦口 |-⑥⑦-|
口口口⑧ |⑧---|
9
⑨口口⑧ |①-②-|
口⑦⑥口 |③④-⑤|
⑤口口④ |-⑥⑦-|
①②③口 |⑧-⑨-|
10
⑥④口⑦ |①---|
③口⑤③ |②--③|
口①①口 |-④⑤-|
②口口② |⑥-⑦-|
11
口口口口 |①②③④|
口⑤口口 |⑤⑥-⑦|
口⑥⑦口
①②③④

⑪口口⑩
⑨口口⑧
⑧口口⑨ |-⑧⑨-|
⑩口口⑪ |⑩-⑪-|
12
⑤口口⑥ |--①-|
口①②口 |②-③-|
口④③口 |④-⑤-|
口口口⑦ |⑥-⑦-|
13
口口口口 |--①-|
④口口④ |②---|
③口口③ |③---|
①②②口 |④---|
14
①①①① |①---|
口口口口 |----|
口口口口
口口口口

②口口口
口②口口
口口口口 |②---|
口口口口 |----|
15
口口口① |①---|
口口①口 |----|
口口口口
口口口口

⑤口口⑤
④口口④
③口口③ |②③-④|
口②②口 |-⑤--|
16
口口口口 |①---|
口口口口 |----|
口①②口 |②---|
①②口口 |----|
17
口④⑤口 |①---|
②口口③ |-②-③|
口口口① |----|
口口①口 |-④⑤-|
18
口口口口 |①-②-|
①②③④ |③-④-|
口口口口
口口口口

⑦口口口
⑧口口口
口⑥⑥口 |⑤--⑥|
口⑤⑤口 |-⑦-⑧|
19
口口③④ |-①-②|
口①②口 |③-④-|
口口口口
口口口口

口⑦⑦口
口口口口
口⑥⑥口 |⑤--⑥|
口⑤⑤口 |-⑦--|
20
口口口口 |①-②-|
①②③④ |③-④-|
口⑤⑥口 |⑤⑥-⑦|
⑦口口⑦ |----|
21
①⑤⑧④ |①-②-|
口口口口 |③-④-|
③⑦⑥② |⑤-⑥-|
口口口口 |⑦-⑧-|
22
④⑤⑥⑦ |①--②|
口②②口 |-③--|
③口口③ |④-⑤-|
口①①口 |⑥-⑦-|
23
口口口口 |①-②③|
口②③口 |--④-|
④口口④
口①①口

⑤口口⑤
口⑥⑦口
口口口口 |-⑤-⑥|
口口口口 |⑦---|
24
口口口口 |①-②-|
口口口口 |③-④-|
①②③④
口口口口

口口口⑤
口⑦⑥口
⑧口口口 |⑤-⑥⑦|
口口口口 |-⑧--|
25
口口口口 |①-②-|
口口口口 |③-④-|
口①②③ |⑤-⑥-|
⑦⑥⑤④ |⑦---|
26
口②①口 |①---|
口①②口 |②---|
口口口口
口口口口

口⑥口口
⑤口⑥⑤
④口口④ |③-④-|
③口口③ |⑤-⑥-|
27
②口①② |--①-|
口①口口 |②---|
口口口口
口口口口

⑤口口⑤
口口口口
口④④口 |③-④-|
口③③口 |--⑤-|
28
⑥①①⑥ |①--②|
⑦②④⑦ |--③-|
口④②口 |④-⑤-|
⑤③③⑤ |⑥-⑦-|
29
口口口口 |①---|
口口口口 |----|
①口口① |----|
口口口口 |----|
30
口①口口 |①---|
②①①③ |----|
②①①③ |②---|
口口口口 |--③-|
31
口③③口 |--①-|
口④④口 |②---|
口②②口 |③-④-|
⑤①①⑤ |--⑤-|
32
口①①口 |①---|
口口口口 |----|
口口口口
口口口口

口口②口
口③口口
口口④口 |--②-|
口口口口 |③-④-|
33
口口口口 |①---|
④口口④ |----|
③口口③ |-②--|
②①口② |③-④-|
34
⑥④口⑦ |①---|
③口⑤③ |②--③|
②②②② |-④⑤-|
口①①口 |⑥-⑦-|
35
口口口口 |①②③④|
口⑦⑧口 |-⑤-⑥|
⑤⑨⑩⑥ |-⑦⑧-|
①②③④ |⑨-⑩-|
36
①②③④ |--①②|
⑤口口口 |③④-⑤|
口⑥⑦口 |-⑥⑦-|
口口口⑧ |⑧---|
37
⑨口口⑧ |①-②-|
口⑦⑥口 |③④-⑤|
⑤口口④ |-⑥⑦-|
①②③口 |⑧-⑨-|
38
⑥④口⑦ |①---|
③口⑤③ |②--③|
口①①口 |-④⑤-|
②口口② |⑥-⑦-|
39
口口口口 |①②③④|
口⑤口口 |⑤⑥-⑦|
口⑥⑦口
①②③④

⑪口口⑩
⑨口口⑧
⑧口口⑨ |-⑧⑨-|
⑩口口⑪ |⑩-⑪-|
40
⑤口口⑥ |--①-|
口①②口 |②-③-|
口④③口 |④-⑤-|
口口口⑦ |⑥-⑦-|
41
口口口口 |--①-|
④口口④ |②---|
③口口③ |③---|
①②②口 |④---|
42
①①①① |①---|
口口口口 |----|
口口口口
口口口口

②口口口
口②口口
口口口口 |②---|
口口口口 |----|
43
口口口① |①---|
口口①口 |----|
口口口口
口口口口

⑤口口⑤
④口口④
③口口③ |②③-④|
口②②口 |-⑤--|
44
口口口口 |①---|
口口口口 |----|
口①②口 |②---|
①③③② |③---|
45
口①②口 |①-②-|
口③④口 |③-④-|
口⑤⑥口 |⑤-⑥-|
口⑦⑧口 |⑦-⑧-|


不确定度: 0

最終更新:2012年11月16日 18:50