アンビリーバボー feat.TAKUYA
mihimaru GT

EXTREME

Level: 8
BPM: 110
Notes: 587

1
口口口口 |----|
口口口口 |----|
口口口口 |----|
口口口口 |----|
2
口⑤口口 |①②③④|
①口③口 |-⑤⑥⑦|
口②口④
口⑦⑥口

口口⑨⑧
⑬口⑪口
口⑫口⑩ |-⑧-⑨|
口口口口 |⑩⑪⑫⑬|
3
口⑤口口 |①②③④|
口②口④ |-⑤⑥-|
①口③口
口口⑥口

⑩口口⑩
⑨口口⑨
口⑦口口 |⑦⑧-⑨|
⑧口口⑧ |-⑩--|
4
口⑤口口 |①②③④|
口②口④ |-⑤⑥⑦|
①口③口
口⑦⑥口

⑫口⑨⑧
口口⑪⑬
⑭口口⑩ |-⑧-⑨|
口口口⑮ |⑩-⑪-⑫⑬⑭⑮|
5
口⑤④口 |①②③④|
口⑥⑥口 |⑤-⑥⑦|
⑦③②口
口①口口

⑪⑬⑮⑨
口口口口
口口口口 |⑧⑨⑩⑪|
⑫⑧⑩⑭ |⑫⑬⑭⑮|
6
口口口口 |①---|
①②②① |②--③|
②①①②
③②②③

⑥口口⑥
⑤⑦⑦⑤
口④④口 |-④⑤-|
口口口口 |⑥-⑦-|
7
口口口口 |①②③④|
⑨⑥⑥⑩ |-⑤-⑥|
⑦⑤⑤⑧ |-⑦⑧-|
①②③④ |⑨-⑩-|
8
①②③④ |--①②|
⑧⑤⑤⑧ |③④-⑤|
⑦口口⑦ |-⑥⑦-|
⑥口口⑥ |⑧---|
9
①②③口 |①-②-|
⑤①②③ |③④-⑤|
口口口口
④口口口

⑨口口口
口口口口
口⑧口口 |-⑥⑦-|
口口⑦⑥ |⑧-⑨-|
10
③②②③ |①---|
②①①② |②--③|
①②②①
口口口口

口口口口
口④④口
⑤⑦⑦⑤ |-④⑤-|
⑥口口⑥ |⑥-⑦-|
11
①口口口 |①②③④|
②③④⑤ |⑤⑥-⑦|
⑥口口⑦
口口口口

⑧⑩⑨⑪
口口口口
口口口口 |-⑧⑨-|
⑨⑪⑧⑩ |⑩-⑪-|
12
⑤②②⑥ |--①-|
口③④口 |②-③-|
⑦①①⑦ |④-⑤-|
口⑦⑦口 |⑥-⑦-|
13
口②口② |--①-|
口④①③ |②---|
口①②③ |③---|
④口④③ |④---|
14
①①口口 |①②③④|
①口口② |--⑤⑥|
①口③口
口⑥⑤④

口口⑧⑦
⑫口⑩口
口⑪口⑨ |-⑦-⑧|
口口口口 |⑨⑩⑪⑫|
15
口⑤口口 |①②③④|
口②口④ |-⑤⑥-|
①口③口
口口⑥口

⑩口口⑩
⑨口口⑨
口⑦口口 |⑦⑧-⑨|
⑧口口⑧ |-⑩--|
16
口口口口 |①②③④|
口②口④ |--⑤⑥|
①口③口
口⑥⑤口

⑫⑧⑦⑪
口口⑨口
⑬口口⑩ |⑦⑧-⑨|
口口口口 |⑩⑪⑫⑬|
17
口⑬⑭口 |①②③④|
⑤⑦⑧⑥ |⑤⑥⑦⑧|
⑨⑪⑫⑩ |⑨⑩⑪⑫|
①③④② |-⑬⑭-|
18
口口口口 |①②③④|
①口口② |⑤⑥⑦-|
③⑦⑦④
⑤口口⑥

⑧⑩口⑧
⑨口⑪⑨
口口口口 |⑧--⑨|
口口口口 |-⑩-⑪|
19
口口口口 |-①-②|
口⑥⑥口 |③④⑤⑥|
⑤①口④
口③②口

⑦口口⑦
⑧口口⑧
口口口⑪ |⑦--⑧|
⑩口口⑨ |-⑨⑩⑪|
20
口口⑧口 |①②③④|
口⑦⑥口 |⑤⑥⑦⑧|
①⑤④口
口③②口

⑩⑨口⑩
口口口口
⑪口口⑪ |⑨⑩-⑪|
口口口口 |----|
21
口口口口 |①②③④|
口口口口 |⑤⑥⑦⑧|
⑦③④⑧
⑤①②⑥

⑪口口⑫
⑨⑬⑬⑩
口⑭⑭口 |⑨⑩⑪⑫|
口口口口 |⑬-⑭-|
22
口②③口 |①-②③|
④口口⑤ |④⑤⑥⑦|
⑥口口⑦
①口口①

⑬口口⑬
口⑧⑨口
口⑩⑪口 |⑧⑨⑩⑪|
⑫口口⑫ |⑫-⑬-|
23
口②③口 |①-②③|
④口口④ |--④-|
①口口①
口口口口

口口口口
口口口口
⑤口口⑤ |-⑤-⑥|
口⑥⑦口 |⑦---|
24
⑦口口⑦ |①②③④|
口②③口 |⑤⑥⑦-|
口④①口
口⑤⑥口

口口口口
口⑨⑩口
⑪口口⑪ |⑧-⑨⑩|
⑧⑫口⑧ |-⑪-⑫|
25
口口口口 |①②③④|
口④⑤口 |⑤-⑥⑦|
口②③口
⑥口①⑦

口口口口
⑩口口⑪
⑧⑫⑫⑨ |⑧⑨⑩⑪|
口口口口 |⑫---|
26
①①口口 |①---|
口①口口 |②--③|
①口口口
②口口③

口⑦⑦口
口口⑥口
口⑤口口 |④-⑤-|
口口④口 |⑥-⑦-|
27
口口口口 |--①-|
①③③① |②---|
②④④② |③-④-|
⑤口口⑤ |--⑤-|
28
①⑨⑨① |①-②③|
⑧②③⑧ |-④⑤-|
⑦④⑤⑦ |⑥-⑦-|
口⑥⑥口 |⑧-⑨-|
29
口口口口 |①---|
口①①口 |----|
口①①口 |----|
口口口口 |----|
30
①口①口 |①--②|
①①①口 |③---|
①口①口
口②③口

④口口④
口口口口
口口口口 |④---|
⑤口口⑤ |--⑤-|
31
口②②口 |--①-|
②①①② |②---|
口②②口
口口口口

④⑤⑤④
口口口口
③口口③ |③-④-|
口口口口 |--⑤-|
32
口口口口 |①---|
口①①口 |----|
口②③口 |--②-|
口④口口 |③-④-|
33
口②②口 |①---|
口口口口 |----|
③口口③ |-②--|
④口①④ |③-④-|
34
口口口口 |①---|
①②②① |②--③|
②①①②
③②②③

⑥口口⑥
⑤⑦⑦⑤
口④④口 |-④⑤-|
口口口口 |⑥-⑦-|
35
口口口口 |①②③④|
⑨⑥⑥⑩ |-⑤-⑥|
⑦⑤⑤⑧ |-⑦⑧-|
①②③④ |⑨-⑩-|
36
①②③④ |--①②|
⑧⑤⑤⑧ |③④-⑤|
⑦口口⑦ |-⑥⑦-|
⑥口口⑥ |⑧---|
37
①②③口 |①-②-|
⑤①②③ |③④-⑤|
口口口口
④口口口

⑨口口口
口口口口
口⑧口口 |-⑥⑦-|
口口⑦⑥ |⑧-⑨-|
38
③②②③ |①---|
②①①② |②--③|
①②②①
口口口口

口口口口
口④④口
⑤⑦⑦⑤ |-④⑤-|
⑥口口⑥ |⑥-⑦-|
39
①口口口 |①②③④|
②③④⑤ |⑤⑥-⑦|
⑥口口⑦
口口口口

⑧⑩⑨⑪
口口口口
口口口口 |-⑧⑨-|
⑨⑪⑧⑩ |⑩-⑪-|
40
⑤②②⑥ |--①-|
口③④口 |②-③-|
⑦①①⑦ |④-⑤-|
口⑦⑦口 |⑥-⑦-|
41
口②口② |--①-|
口④①③ |②---|
口①②③ |③---|
④口④③ |④---|
42
①①口口 |①②③④|
①口口② |-⑤⑥⑦|
①口③口
⑤⑦⑥④

口口⑨⑧
⑬口⑪口
口⑫口⑩ |-⑧-⑨|
口口口口 |⑩⑪⑫⑬|
43
口⑤口口 |①②③④|
口②口④ |-⑤⑥-|
①口③口
口口⑥口

⑩口口⑩
⑨口口⑨
口⑦口口 |⑦⑧-⑨|
⑧口口⑧ |-⑩--|
44
口口口口 |①②③④|
口②口④ |-⑤⑥⑦|
①口③口
⑤⑦⑥口

口口⑨⑧
⑫口口⑬
⑩口口⑪ |-⑧-⑨|
口口口口 |⑩⑪⑫⑬|
45
⑮⑦⑧⑯ |①②③④|
⑬⑤⑥⑭ |⑤⑥⑦⑧|
⑪③④⑫ |⑨⑩⑪⑫|
⑨①②⑩ |⑬⑭⑮⑯|


不确定度: 0

最終更新:2012年11月16日 18:50