そらとぶひかり
COLTEMÖNIKHA

BASIC

Level: 2
BPM: 130
Notes: 238

1
口口口口 |----|
口口口口 |----|
口口口口 |----|
口口口口 |----|
2
口口口口 |①---|
口①①口 |----|
②口口③ |②---|
口口口口 |③---|
3
口④④口 |①---|
口③③口 |②---|
口②②口 |③---|
口①①口 |④---|
4
②口口② |----|
①口口① |①---|
口口口口 |----|
口口口口 |②---|
5
口①①口 |----|
②口口② |①---|
口口口口 |----|
口口口口 |②---|
6
口口口口 |①---|
口①①口 |----|
②口口③ |②---|
口口口口 |③---|
7
口④④口 |①---|
口③③口 |②---|
口②②口 |③---|
口①①口 |④---|
8
口口口口 |----|
①口口① |①---|
口②②口 |----|
口口口口 |②---|
9
口口口口 |----|
口口口口 |①---|
口口口口 |----|
①②②① |②---|
10
口口口口 |----|
口口口口 |①---|
①口口② |----|
口口口口 |②---|
11
口口口口 |----|
口③口口 |①---|
口①②口 |②---|
口口口口 |③---|
12
②口口② |①---|
口口①口 |----|
口口口口 |②---|
口口口口 |----|
13
口口口口 |①---|
②口口② |----|
①口口① |②---|
口口口口 |----|
14
口口口口 |①---|
口①②口 |----|
口口口口 |②---|
口口口口 |----|
15
口口口口 |①---|
③口口④ |②---|
①口口② |③---|
口口口口 |④---|
16
①③④② |①---|
口口口口 |②---|
口口口口 |③---|
口口口口 |④---|
17
口口口口 |①---|
口①①口 |----|
口②②口 |②---|
口口口口 |----|
18
口口口口 |①---|
口口口口 |----|
②口口口 |②---|
口①①口 |----|
19
②口口口 |①---|
①口口口 |----|
口口口口 |②---|
口口口口 |----|
20
口①②口 |①---|
口口口口 |----|
口口口口 |②---|
口口口口 |----|
21
口口口① |①---|
口口口② |----|
口口口口 |②---|
口口口口 |----|
22
口口口口 |①---|
口口口口 |----|
口口口① |②---|
口口口② |----|
23
口口口口 |①---|
口口口口 |----|
口口口口 |②---|
口②①口 |----|
24
口口口口 |①---|
口②口口 |----|
口①口口 |②---|
口口口口 |----|
25
口口口口 |①---|
口口①口 |----|
口口②口 |②---|
口口口口 |----|
26
口口口口 |①---|
口口口口 |----|
①口口① |②---|
口②③口 |③---|
27
口口口口 |①---|
口③④口 |②---|
口①②口 |③---|
口口口口 |④---|
28
口①①口 |①---|
②口口② |----|
口口口口 |②---|
口口口口 |----|
29
口口口口 |①---|
口口口口 |②---|
口①②③ |③---|
口口口口 |----|
30
口口口口 |①---|
口口口口 |----|
口口口口 |②---|
①口口② |----|
31
口口口口 |①---|
口②②口 |----|
口①①口 |②---|
口口口口 |----|
32
口口口口 |①---|
口口口口 |②---|
①②③④ |③---|
口口口口 |④---|
33
口口口口 |①---|
④③②① |②---|
口口口口 |③---|
口口口口 |④---|
34
口口口口 |①---|
口口口口 |----|
口①②口 |②---|
口口口口 |----|
35
口口口口 |①---|
口①②③ |②---|
口口口口 |③---|
口口口口 |----|
36
①口口② |①---|
口口口口 |----|
口口口口 |②---|
口口口口 |----|
37
口口口口 |①---|
口①①口 |②---|
口②②口 |③---|
口③③口 |----|
38
口口口口 |①---|
口口口口 |----|
②口口口 |②---|
①口口口 |----|
39
口口口口 |①---|
口口口口 |----|
口口口② |②---|
口口口① |----|
40
口④④口 |①---|
口③③口 |②---|
口②②口 |③---|
口①①口 |④---|
41
①口口① |①---|
②口口② |②---|
③口口③ |③---|
口口口口 |----|
42
口口口口 |①---|
口口口口 |②---|
口①②③ |③---|
口口口口 |----|
43
口口口口 |①---|
口②②① |----|
口口口口 |②---|
口口口口 |----|
44
口口口口 |①---|
口口口口 |②---|
③②①口 |③---|
口口口口 |----|
45
口口口口 |①---|
①②②口 |----|
口口口口 |②---|
口口口口 |----|
46
口①②③ |①---|
口口口口 |②---|
口口口口 |③---|
口口口口 |----|
47
口口口口 |①---|
口②②① |----|
口口口口 |②---|
口口口口 |----|
48
口口口口 |①---|
口口口口 |②---|
③②①口 |③---|
口口口口 |----|
49
口口口口 |①---|
口①①口 |----|
③口口③ |②---|
口②②口 |③---|
50
口口口口 |①---|
口①①口 |----|
②口口③ |②---|
口口口口 |③---|
51
口④④口 |①---|
口③③口 |②---|
口②②口 |③---|
口①①口 |④---|
52
口口口口 |----|
①口口① |①---|
口②②口 |----|
口口口口 |②---|
53
口口口口 |----|
口口口口 |①---|
②口口② |----|
①口口① |②---|
54
口口口口 |①---|
口①①口 |----|
②口口③ |②---|
口口口口 |③---|
55
口④④口 |①---|
口③③口 |②---|
口②②口 |③---|
口①①口 |④---|
56
口口口口 |----|
①口口① |①---|
口②②口 |----|
口口口口 |②---|
57
口口口口 |----|
口口口口 |①---|
口口口口 |----|
①②②① |②---|
58
口口口口 |----|
口口口口 |①---|
①口口② |----|
口口口口 |②---|
59
口口口口 |----|
口③口口 |①---|
口①②口 |②---|
口口口口 |③---|
60
②口口② |①---|
口口①口 |----|
口口口口 |②---|
口口口口 |----|
61
口口口口 |①---|
②口口② |----|
①口口① |②---|
口口口口 |----|
62
口口口口 |①---|
口①②口 |----|
口口口口 |②---|
口口口口 |----|
63
口口口口 |①---|
③口口④ |②---|
①口口② |③---|
口口口口 |④---|
64
①③④② |①---|
口口口口 |②---|
口口口口 |③---|
口口口口 |④---|
65
口口口口 |①---|
口①①口 |----|
口②②口 |②---|
口口口口 |----|
66
口口口口 |①---|
口口口口 |----|
口口口口 |----|
口①①口 |----|


不确定度: 0

最終更新:2012年11月16日 18:50