そらとぶひかり
COLTEMÖNIKHA

ADVANCED

Level: 5
BPM: 130
Notes: 392

1
口口口口 |----|
口口口口 |----|
口口口口 |----|
口口口口 |----|
2
③口口④ |①-②-|
①⑤⑤② |③-④-|
口⑥⑦口 |⑤---|
口口口口 |⑥-⑦-|
3
口口口口 |--①-|
口口口口 |②-③-|
⑤口口⑤ |④---|
①②③④ |⑤---|
4
⑤③②口 |--①-|
口口口口 |②-③-|
⑦①④⑥ |④-⑤-|
口口口口 |⑥-⑦-|
5
口口口① |①-②-|
口②③④ |③-④-|
⑤口口口 |----|
口口口口 |--⑤-|
6
②口口③ |--①-|
口④④① |②-③-|
口⑤⑥口 |④---|
口口口口 |⑤-⑥-|
7
口口口口 |--①-|
口口口口 |②-③-|
⑤口口⑤ |④---|
①②③④ |⑤---|
8
⑤③②口 |--①-|
口口口口 |②-③-|
⑦①④⑥ |④-⑤-|
口口口口 |⑥-⑦-|
9
口口口① |①-②-|
口②③④ |③-④-|
口口口口
口口口口

口口口口
口⑦口口
口口⑥口 |--⑤-|
口⑤口口 |⑥-⑦-|
10
口口口② |--①-|
④口①口 |②---|
口③口口 |③-④-|
口口口口 |----|
11
口④⑤口 |--①-|
口③⑥口 |②-③-|
口②⑦口 |④-⑤-|
口①口口 |⑥-⑦-|
12
口口口口 |--①-|
口口口口 |②-③-|
口口口口 |----|
口①②③ |----|
13
口口口口 |①-②-|
口⑦③④ |③-④-|
①②⑥口 |--⑤-|
口⑤口口 |⑥-⑦-|
14
口口口② |--①-|
④口①口 |②---|
口③口口 |③-④-|
口口口口 |----|
15
口④⑤口 |--①-|
口③⑥口 |②-③-|
口②⑦口 |④-⑤-|
口①口口 |⑥-⑦-|
16
①口口① |--①-|
②口口② |--②-|
③口口③ |--③-|
④口口④ |--④-|
17
口口口口 |--①-|
③①口② |②-③-|
⑦⑥⑤④ |④-⑤-|
口口口口 |⑥-⑦-|
18
口口口口 |----|
②口口② |----|
口①①口 |----|
口口口口 |①-②-|
19
②口口② |----|
口①①口 |----|
口③③口 |--①-|
口口口口 |②-③-|
20
⑤⑤口口 |①---|
口口④④ |--②-|
③③口口 |--③-|
②①①② |④-⑤-|
21
⑦口口⑦ |--①-|
口⑤⑥口 |②-③-|
口③④口 |④-⑤-|
口①②口 |⑥-⑦-|
22
口口口口 |----|
口口口口 |----|
①口口② |①-②-|
口口口口 |----|
23
口口口口 |①-②-|
⑥口口⑥ |③---|
⑤①②⑤ |④-⑤-|
口③口④ |--⑥-|
24
⑥口口⑥ |①-②-|
⑤①②⑤ |③---|
口③口④ |④-⑤-|
口口口口 |--⑥-|
25
口口口口 |--①-|
②②②② |--②-|
①①①① |----|
口口口口 |----|
26
口口口口 |----|
口③④口 |①---|
①口口② |②---|
口口口口 |③-④-|
27
口口口口 |①-②-|
口口口口 |③-④-|
口口口口 |----|
①②③④ |----|
28
口⑥⑦口 |--①-|
口④⑤口 |②-③-|
口②③口 |④-⑤-|
口口①口 |⑥-⑦-|
29
口口口口 |①-②-|
口口口口 |③-④-|
口口口口 |----|
①②③④ |----|
30
口口口口 |--①-|
口①②口 |②-③-|
③口口④ |④---|
口口口口 |----|
31
③③③③ |①-②-|
口口口口 |--③-|
口①②口 |----|
口口口口 |----|
32
口⑤④口 |----|
⑥口口③ |①-②-|
口口②口 |③-④-|
口口口① |⑤-⑥-|
33
口口口口 |①-②-|
口口口口 |③-④-|
口①口口 |----|
②③④口 |----|
34
口口口口 |----|
口⑤⑥口 |①-②-|
①③④② |③-④-|
口口口口 |⑤-⑥-|
35
口口口口 |①-②-|
口口口口 |③-④-|
口口口口 |----|
①②③④ |----|
36
①口口① |----|
②口口② |①---|
③口口③ |②---|
口口口口 |③---|
37
口口口口 |①-②-|
口口口口 |③-④-|
口口口口 |----|
①②③④ |----|
38
口口口口 |--①-|
口①②口 |②-③-|
③口口④ |④---|
口口口口 |----|
39
③③③③ |①-②-|
口口口口 |--③-|
口①②口 |----|
口口口口 |----|
40
口⑤④口 |----|
⑥口口③ |①-②-|
口口②口 |③-④-|
口口口① |⑤-⑥-|
41
口口口口 |①-②-|
口口口口 |③-④-|
口①口口
②③④口

⑦⑦口口
口口⑥⑥
⑤⑤口口 |--⑤-|
口口口口 |⑥-⑦-|
42
口口口口 |--①-|
③①口③ |②---|
③口②③ |③---|
口口口口 |----|
43
口口口口 |----|
口口③③ |----|
②②口口 |--①-|
口口①① |②-③-|
44
③口口③ |--①-|
③②口③ |②---|
口口①口 |③---|
口口口口 |----|
45
③③口口 |----|
口口②② |----|
①①口口 |--①-|
口口口口 |②-③-|
46
口口口口 |--①-|
口①口口 |②---|
③口②③ |③---|
③口口③ |----|
47
口口口口 |----|
口口③③ |----|
②②口口 |--①-|
口口①① |②-③-|
48
⑥⑤④⑥ |--①-|
⑥③口⑥ |②-③-|
口口②口 |④-⑤-|
口①口口 |--⑥-|
49
口口口口 |----|
口口口口 |--①-|
口口③③ |②---|
①口②② |③---|
50
③口口④ |①-②-|
①⑤⑤② |③-④-|
口⑥⑦口 |⑤---|
口口口口 |⑥-⑦-|
51
口口口口 |--①-|
口口口口 |②-③-|
⑤口口⑤ |④---|
①②③④ |⑤---|
52
⑤③②口 |--①-|
口口口口 |②-③-|
⑦①④⑥ |④-⑤-|
口口口口 |⑥-⑦-|
53
口口口① |①-②-|
口②③④ |③-④-|
⑤口口口 |----|
口口口口 |--⑤-|
54
②口口③ |--①-|
口④④① |②-③-|
口⑤⑥口 |④---|
口口口口 |⑤-⑥-|
55
口口口口 |--①-|
口口口口 |②-③-|
⑤口口⑤ |④---|
①②③④ |⑤---|
56
⑤③②口 |--①-|
口口口口 |②-③-|
⑦①④⑥ |④-⑤-|
口口口口 |⑥-⑦-|
57
口口口① |①-②-|
口②③④ |③-④-|
口口口口
口口口口

口口口口
口⑦口口
口口⑥口 |--⑤-|
口⑤口口 |⑥-⑦-|
58
口口口② |--①-|
④口①口 |②---|
口③口口 |③-④-|
口口口口 |----|
59
口④⑤口 |--①-|
口③⑥口 |②-③-|
口②⑦口 |④-⑤-|
口①口口 |⑥-⑦-|
60
口口口口 |--①-|
口口口口 |②-③-|
口口口口 |----|
口①②③ |----|
61
口口口口 |①-②-|
口⑦③④ |③-④-|
①②⑥口 |--⑤-|
口⑤口口 |⑥-⑦-|
62
口口口② |--①-|
④口①口 |②---|
口③口口 |③-④-|
口口口口 |----|
63
口④⑤口 |--①-|
口③⑥口 |②-③-|
口②⑦口 |④-⑤-|
口①口口 |⑥-⑦-|
64
①口口① |--①-|
②口口② |--②-|
③口口③ |--③-|
④口口④ |--④-|
65
⑦⑦⑦⑦ |--①-|
③①口② |②-③-|
口⑥⑤④ |④-⑤-|
口口口口 |⑥-⑦-|


不确定度: 0

最終更新:2012年11月16日 18:49