そらとぶひかり
COLTEMÖNIKHA

EXTREME

Level: 8
BPM: 130
Notes: 680

1
口口口口 |----|
口口口口 |----|
口口口口 |----|
口口口口 |----|
2
口口口口 |①-②-|
④⑤口② |③-④⑤|
口①③口
③③①①

口⑦⑦口
口口⑥口
口口⑧口 |⑥---|
口⑧口口 |⑦-⑧-|
3
⑤口口⑤ |--①-|
口⑤⑤口 |②-③-|
①③④② |④---|
②④③① |⑤---|
4
⑤①②⑥ |--①-|
①⑤⑥② |②-③-|
④口⑦③ |④-⑤-|
口④③⑦ |⑥-⑦-|
5
口③③口 |①-②-|
②口口④ |③-④-|
②①口④
①口口口

口口口口
口口口口
口⑤口口 |----|
口口⑤⑤ |--⑤-|
6
口口口口 |--①-|
③④口① |②-③④|
口口②口
②②口口

口⑥⑥口
口口⑤口
口口⑦口 |⑤---|
口⑦口口 |⑥-⑦-|
7
⑤口口⑤ |--①-|
口⑤⑤口 |②-③-|
①③④② |④---|
②④③① |⑤---|
8
⑤①②⑥ |--①-|
①⑤⑥② |②-③-|
④口⑦③ |④-⑤-|
口④③⑦ |⑥-⑦-|
9
口③③口 |①-②-|
②口口④ |③-④-|
②①口④
①口口口

⑦口口⑦
口口口口
口⑥⑥口 |--⑤-|
⑤口口⑤ |⑥-⑦-|
10
口④②口 |--①-|
口③①口 |②---|
口口口口 |③-④-|
口口口口 |----|
11
⑦④②⑦ |--①-|
口⑥⑥口 |②-③-|
口⑤⑤口 |④-⑤-|
③口口① |⑥-⑦-|
12
口口口口 |--①-|
口口口口 |②-③-|
口口口口 |----|
①②③口 |----|
13
口口口口 |①-②-|
口口③④ |③-④-|
①②口口
口口口口

⑦口口⑦
口口口口
口⑥⑥口 |--⑤-|
⑤口口⑤ |⑥-⑦-|
14
口④②口 |--①-|
口③①口 |②---|
口口口口 |③-④-|
口口口口 |----|
15
⑦④②⑦ |--①-|
口⑥⑥口 |②-③-|
口⑤⑤口 |④-⑤-|
③口口① |⑥-⑦-|
16
口口口口 |--①-|
①口口① |--②-|
②口口② |--③-|
③④④③ |--④-|
17
①口口④ |--①-|
⑤⑦⑦⑥ |②-③-|
口③②口 |④-⑤-|
口口口口 |⑥-⑦-|
18
④④口口 |①---|
③③④⑤ |②---|
②②口口 |③---|
①①口口 |④-⑤-|
19
⑦⑦⑧⑦ |①-②-|
⑤⑤⑥口 |③-④-|
③③②② |⑤-⑥-|
①①④④ |⑦-⑧-|
20
口口口口 |①---|
口口口① |②-③-|
②②口口
①①③口

⑥⑥⑦口
④④口⑥
口口⑤口 |④-⑤-|
口口口口 |⑥-⑦-|
21
⑦⑦⑧⑧ |①-②-|
⑤⑤⑥⑦ |③-④-|
③③④⑤ |⑤-⑥-|
①①②③ |⑦-⑧-|
22
⑤⑤口口 |①---|
③③口口 |②---|
②②④③ |③-④-|
①①口口 |⑤---|
23
⑥⑥①② |①-②-|
④④③口 |③---|
③③④⑤ |④-⑤-|
①①口⑦ |⑥-⑦-|
24
⑥⑥①② |①-②-|
④④③口 |③---|
③③④⑤ |④-⑤-|
①①⑥⑦ |⑥-⑦-|
25
口口口口 |①-②-|
②口口② |--③-|
③口口③
①①口口

口⑤⑤口
口口口口
口④④口 |--④-|
口⑥⑥口 |⑤-⑥-|
26
口口口口 |----|
②①②① |①---|
①②①② |②---|
④口口③ |③-④-|
27
②口口① |①-②-|
口口口口 |③-④-|
⑤⑥⑦⑧ |⑤-⑥-|
口④③口 |⑦-⑧-|
28
口②⑥口 |--①-|
⑤口口③ |②-③-|
①口口⑦ |④-⑤-|
口口④口 |⑥-⑦-|
29
②口口③ |①-②-|
口口口口 |③-④-|
口口口口
口①口④

⑨⑨口口
⑤口口口
口⑥⑧⑦ |⑤-⑥⑦|
口口口口 |⑧-⑨-|
30
口口口口 |--①-|
①④②③ |②-③-|
①②④③ |④---|
口口口口 |----|
31
③③③③ |①-②-|
①口口② |--③-|
④⑤⑥⑦ |④-⑤-|
口①②口 |⑥-⑦-|
32
⑥⑥口口 |----|
口⑤口口 |①-②-|
②②④④ |③-④-|
口①③口 |⑤-⑥-|
33
口口②② |①-②-|
③口①③ |③-④-|
口口口口
④口口④

口口口口
口⑧⑧口
⑤口⑥⑦ |⑤--⑥|
口口口口 |⑦-⑧-|
34
口⑤④口 |①---|
③口口② |②-③-|
口口口口 |④-⑤-|
⑦①①⑥ |⑥-⑦-|
35
②口口① |①-②-|
口口口口 |③-④-|
⑤⑥⑦⑧ |⑤-⑥-|
口④③口 |⑦-⑧-|
36
口②①口 |----|
②③③① |①---|
①③③② |②---|
口①②口 |③---|
37
③口③④ |①-②-|
②口口口 |③-④-|
口口口④
②①口①

⑨⑨口口
口口口口
⑤口口口 |⑤-⑥⑦|
口⑥⑧⑦ |⑧-⑨-|
38
口口口口 |--①-|
①④②③ |②-③-|
①②④③ |④---|
口口口口 |----|
39
③③③③ |①-②-|
①口口② |--③-|
④⑤⑥⑦ |④-⑤-|
口①②口 |⑥-⑦-|
40
⑥⑥口口 |----|
口⑤口口 |①-②-|
②②④④ |③-④-|
口①③口 |⑤-⑥-|
41
口口②② |①-②-|
③口①③ |③-④-|
口口口口
④口口④

口⑥⑥口
口⑦⑦口
⑤口口⑤ |--⑤-|
口口口口 |⑥-⑦-|
42
⑤⑤④④ |①-②-|
④④口口 |③---|
③③口③ |④---|
①①口② |⑤---|
43
⑤⑤口口 |①---|
③③口口 |②---|
②②⑥口 |③-④-|
①①④⑤ |⑤-⑥-|
44
⑤⑤④④ |①-②-|
④④②③ |③---|
③③口口 |④---|
①①口口 |⑤---|
45
⑤⑤口口 |①---|
③③口口 |②---|
②②⑥口 |③-④-|
①①④⑤ |⑤-⑥-|
46
⑥⑥④⑤ |①-②-|
⑤⑤②③ |③-④-|
③③口口 |⑤---|
①①口口 |⑥---|
47
⑤⑤⑥口 |①---|
③③④⑤ |②---|
②②口口 |③-④-|
①①口口 |⑤-⑥-|
48
⑦⑦⑧⑧ |①-②-|
⑤⑤⑥⑥ |③-④-|
③③④⑤ |⑤-⑥-|
①①②③ |⑦-⑧-|
49
⑤口口⑤ |----|
口③④口 |--①-|
①口口② |②--③|
口②①口 |④-⑤-|
50
口口口口 |①-②-|
④⑤口② |③-④⑤|
口①③口
③③①①

口⑦⑦口
口口⑥口
口口⑧口 |⑥---|
口⑧口口 |⑦-⑧-|
51
⑤口口⑤ |--①-|
口⑤⑤口 |②-③-|
①③④② |④---|
②④③① |⑤---|
52
⑤①②⑥ |--①-|
①⑤⑥② |②-③-|
④口⑦③ |④-⑤-|
口④③⑦ |⑥-⑦-|
53
口③③口 |①-②-|
②口口④ |③-④-|
②①口④
①口口口

口口口口
口口口口
口⑤口口 |----|
口口⑤⑤ |--⑤-|
54
口口口口 |--①-|
③④口① |②-③④|
口口②口
②②口口

口⑥⑥口
口口⑤口
口口⑦口 |⑤---|
口⑦口口 |⑥-⑦-|
55
⑤口口⑤ |--①-|
口⑤⑤口 |②-③-|
①③④② |④---|
②④③① |⑤---|
56
⑤①②⑥ |--①-|
①⑤⑥② |②-③-|
④口⑦③ |④-⑤-|
口④③⑦ |⑥-⑦-|
57
口③③口 |①-②-|
②口口④ |③-④-|
②①口④
①口口口

⑦口口⑦
口口口口
口⑥⑥口 |--⑤-|
⑤口口⑤ |⑥-⑦-|
58
口④②口 |--①-|
口③①口 |②---|
口口口口 |③-④-|
口口口口 |----|
59
⑦④②⑦ |--①-|
口⑥⑥口 |②-③-|
口⑤⑤口 |④-⑤-|
③口口① |⑥-⑦-|
60
口口口口 |--①-|
口口口口 |②-③-|
口口口口 |----|
①②③口 |----|
61
口口口口 |①-②-|
口口③④ |③-④-|
①②口口
口口口口

⑦口口⑦
口口口口
口⑥⑥口 |--⑤-|
⑤口口⑤ |⑥-⑦-|
62
口④②口 |--①-|
口③①口 |②---|
口口口口 |③-④-|
口口口口 |----|
63
⑦④②⑦ |--①-|
口⑥⑥口 |②-③-|
口⑤⑤口 |④-⑤-|
③口口① |⑥-⑦-|
64
口口口口 |--①-|
①口口① |--②-|
②口口② |--③-|
③④④③ |--④-|
65
①口口④ |--①-|
⑤⑦⑦⑥ |②-③-|
⑦③②⑦ |④-⑤-|
口⑦⑦口 |⑥-⑦-|


不确定度: 0

最終更新:2012年11月16日 18:49