Share The World
東方神起

BASIC

Level: 3
BPM: 120
Notes: 329

1
口口口口 |----|
口口口口 |----|
①②口口 |----|
口口口口 |①-②-|
2
口③③口 |①---|
口②②口 |②---|
口口①④ |③---|
口口口口 |--④-|
3
③口口③ |①---|
②口口② |②---|
口口①口 |③---|
口口口口 |----|
4
口口口口 |①---|
口②②口 |----|
口①①口 |②---|
口口口口 |----|
5
①口口① |①---|
口②③口 |----|
口口口口 |②---|
口口口口 |③---|
6
口口口口 |①---|
口口口口 |②---|
①②③④ |③---|
口口口口 |④---|
7
口④④口 |①---|
口③③口 |②---|
口②②口 |③---|
①口口① |④---|
8
①口口① |①---|
②口口② |②---|
③口口③ |③---|
口口口口 |----|
9
④口口④ |①---|
③口口③ |②---|
②①①② |③---|
口口口口 |④---|
10
口①①口 |①---|
口②②口 |②---|
口③③口 |③---|
④口口④ |④---|
11
口④④口 |①---|
②③③② |②---|
①口口① |③---|
口口口口 |④---|
12
①口口① |①---|
②口口② |②---|
③口口③ |③---|
口口口口 |----|
13
④口口④ |①---|
③口口③ |②---|
②①①② |③---|
口口口口 |④---|
14
口①①口 |①---|
④②②④ |②---|
口③③口 |③---|
口口口口 |④---|
15
口③④口 |①---|
口①②口 |②---|
口口口口 |③---|
口口口口 |④---|
16
口口口口 |①---|
①口口① |----|
②口口② |②---|
口口口口 |----|
17
口口口口 |①---|
口口口口 |②---|
口③④口 |③---|
口①②口 |④---|
18
②口口② |①---|
①口口① |----|
口口口口 |②---|
口口口口 |----|
19
口口口口 |①---|
①口口② |②---|
③口口④ |③---|
口口口口 |④---|
20
口④④口 |①---|
口③③口 |②---|
口②②口 |③---|
口①①口 |④---|
21
①口口② |①---|
口口口口 |----|
口口口口 |②---|
口口口口 |----|
22
口口口口 |①---|
①口口① |②---|
②口口② |③---|
③口口③ |----|
23
口口口口 |①---|
②口口口 |----|
①口口口 |②---|
口口口口 |----|
24
口口口口 |①---|
②②口口 |----|
①①口口 |②---|
口口口口 |----|
25
口口口口 |①---|
②②②口 |----|
①①①口 |②---|
口口口口 |----|
26
口口口口 |①---|
口口口口 |----|
①①①①
口口口口

口口口口
②②②②
③④口口 |②---|
口口口口 |③-④-|
27
口③③口 |①---|
口②②口 |②---|
口口①④ |③---|
口口口口 |--④-|
28
③口口③ |①---|
②口口② |②---|
口口①口 |③---|
口口口口 |----|
29
口口口口 |①---|
口①①口 |②---|
口②②口 |③---|
口③③口 |----|
30
④口口④ |①---|
③口口③ |②---|
②口口② |③---|
①口口① |④---|
31
口③③口 |①---|
口②②口 |②---|
口①①口 |③---|
口口口口 |----|
32
③口口③ |①---|
②口口② |②---|
①口口① |③---|
口口口口 |----|
33
口口口口 |①---|
口②②口 |----|
口①①口 |②---|
口口口口 |----|
34
①②③① |①---|
口口口口 |----|
口口口口 |②---|
口口口口 |③---|
35
口口口口 |①---|
口①②口 |②---|
口③④口 |③---|
口口口口 |④---|
36
口④④口 |①---|
②③③② |②---|
①口口① |③---|
口口口口 |④---|
37
①口口① |①---|
②口口② |②---|
③口口③ |③---|
口口口口 |----|
38
④口口④ |①---|
③口口③ |②---|
②①①② |③---|
口口口口 |④---|
39
口①①口 |①---|
④②②④ |②---|
口③③口 |③---|
口口口口 |④---|
40
口③④口 |①---|
口①②口 |②---|
口口口口 |③---|
口口口口 |④---|
41
口口口口 |①---|
①口口① |----|
②口口② |②---|
口口口口 |----|
42
口口口口 |①---|
口口口口 |②---|
口③④口 |③---|
口①②口 |④---|
43
②口口② |①---|
①口口① |----|
口口口口 |②---|
口口口口 |----|
44
口口口口 |①---|
①口口② |②---|
③口口④ |③---|
口口口口 |④---|
45
口④④口 |①---|
口③③口 |②---|
口②②口 |③---|
口①①口 |④---|
46
①口口② |①---|
口口口口 |----|
口口口口 |②---|
口口口口 |----|
47
口口口口 |①---|
①口口① |②---|
②口口② |③---|
③口口③ |----|
48
口口口口 |①---|
②口口口 |----|
①口口口 |②---|
口口口口 |----|
49
口口口口 |①---|
②②口口 |----|
①①口口 |②---|
口口口口 |----|
50
口口口口 |①---|
②②②口 |----|
①①①口 |②---|
口口口口 |----|
51
口口口口 |①---|
口口口口 |----|
①①①①
口口口口

口口口口
②②②②
③④口口 |②---|
口口口口 |③-④-|
52
口③③口 |①---|
口②②口 |②---|
口口①④ |③---|
口口口口 |--④-|
53
③口口③ |①---|
②口口② |②---|
口口①口 |③---|
口口口口 |----|
54
口口口口 |①---|
口①①口 |②---|
口②②口 |③---|
口③③口 |----|
55
④口口④ |①---|
③口口③ |②---|
②口口② |③---|
①口口① |④---|
56
口③③口 |①---|
口②②口 |②---|
口①①口 |③---|
口口口口 |----|
57
③口口③ |①---|
②口口② |②---|
①口口① |③---|
口口口口 |----|
58
口口口口 |①---|
口②②口 |----|
口①①口 |②---|
口口口口 |----|
59
①②③① |①---|
口口口口 |----|
口口口口 |②---|
口口口口 |③---|
60
口口口口 |①---|
口①②口 |②---|
口③④口 |③---|
口口口口 |④---|


不确定度: 0

最終更新:2012年11月16日 18:49