Share The World
東方神起

ADVANCED

Level: 6
BPM: 120
Notes: 553

1
口口口口 |----|
①②口口 |----|
口口口口 |----|
口口口口 |①-②-|
2
口⑤口口 |①---|
口口①口 |②-③④|
②口口② |----|
口③④口 |--⑤-|
3
口口①口 |①---|
②⑤⑤② |②-③④|
⑥③④⑦ |----|
口口口口 |⑤-⑥⑦|
4
④⑥⑦⑤ |----|
②口口③ |①-②③|
口①①口 |--④-|
口口口口 |⑤-⑥⑦|
5
口口口口 |--①-|
口①①口 |---②|
②口口③ |--③-|
口④⑤口 |④⑤--|
6
口口口口 |①---|
口③④② |②---|
⑤①口⑥ |③-④-|
口口口口 |⑤⑥--|
7
①口口② |①②-③|
④③口⑤ |-④⑤-|
⑧⑦⑦⑧ |⑥-⑦-|
⑥⑨⑨⑥ |⑧-⑨-|
8
口①②口 |①②③④|
⑤③④⑥ |-⑤⑥-|
口口口口
口口口口

⑧口口⑨
口⑩⑪口
口⑦⑦口 |⑦-⑧-|
口口口口 |⑨-⑩⑪|
9
口⑤⑥口 |①②③④|
③口口④ |-⑤⑥-|
①口口②
口口口口

口口口口
口口口口
⑨⑧⑧⑨ |⑦-⑧-|
⑦⑩⑩⑦ |⑨-⑩-|
10
口①②口 |①②③④|
⑤③④⑥ |-⑤⑥-|
口口口口
口口口口

口⑧⑧口
口口口口
口⑦⑦口 |⑦---|
口口口口 |⑧---|
11
①口口② |①②-③|
④口③⑤ |-④⑤-|
⑧⑦⑦⑧ |⑥-⑦-|
⑥⑨⑨⑥ |⑧-⑨-|
12
口①②口 |①②③④|
⑤③④⑥ |-⑤⑥-|
口口口口
口口口口

⑧口口⑨
口⑩⑪口
口⑦⑦口 |⑦-⑧-|
口口口口 |⑨-⑩⑪|
13
口⑤⑥口 |①②③④|
③口口④ |-⑤⑥-|
①口口②
口口口口

口口口口
口口口口
⑨⑧⑧⑨ |⑦-⑧-|
⑦⑩⑩⑦ |⑨-⑩-|
14
口①②口 |①②③④|
⑤③④⑥ |-⑤⑥-|
口口口口
口口口口

⑧⑧⑧⑧
口口口口
⑨⑦⑦口 |⑦---|
口口口口 |⑧-⑨-|
15
口口口口 |①-②③|
口⑧⑨口 |--④-|
口⑥⑦① |⑤-⑥⑦|
④②③⑤ |-⑧⑨-|
16
②①口③ |①-②③|
④⑨口⑤ |-④⑤-|
口口⑥口 |⑥-⑦⑧|
⑦口口⑧ |--⑨-|
17
②④⑤③ |①-②③|
⑥口①⑦ |--④-|
⑧口口口 |⑤-⑥⑦|
口口口口 |--⑧-|
18
口口口口 |①-②③|
口⑥⑥口 |-④⑤-|
口④⑤① |⑥---|
⑦②③口 |--⑦-|
19
⑧⑥⑦口 |①-②③|
④口口⑤ |--④-|
口②③口 |⑤-⑥⑦|
口口口① |--⑧-|
20
口⑥⑦① |①-②③|
⑧④⑤⑧ |-④⑤-|
⑨②③口 |⑥⑦-⑧|
口口口口 |--⑨-|
21
④口口⑤ |①-②③|
⑧⑥⑦⑨ |--④-|
⑩②③① |⑤-⑥⑦|
口口口口 |-⑧⑨⑩|
22
⑦口口⑦ |①-②③|
口口口口 |-④⑤-|
口②③① |⑥---|
⑥④⑤⑥ |⑦---|
23
口④④口 |①-②③|
①口②③ |-④--|
口⑧⑧口 |⑤-⑥⑦|
⑤口⑥⑦ |-⑧--|
24
口④④口 |①-②③|
①口②③ |-④--|
口⑧⑧口 |⑤-⑥⑦|
⑤口⑥⑦ |-⑧--|
25
口④④口 |①-②③|
①口②③ |-④--|
⑨⑦⑧⑩ |⑤⑥⑦⑧|
口⑤⑥口 |⑨⑩--|
26
口④④口 |①-②③|
①口②③ |-④--|
口口口口
口口口口

⑤口口⑤
⑥⑦口口
口口口口 |⑤---|
口口口口 |⑥-⑦-|
27
口⑤口口 |①---|
口口①口 |②-③④|
②口口② |----|
口③④口 |--⑤-|
28
口口①口 |①---|
②口口② |②-③④|
口③④口 |----|
口口口口 |----|
29
口⑤⑤口 |①---|
口③④口 |②-③④|
①口口① |----|
口②②口 |--⑤-|
30
⑤⑤⑤⑤ |①-②-|
①④④① |③-④-|
②口口② |--⑤-|
口③③口 |----|
31
口口口口 |①---|
口口①口 |②-③④|
②⑤⑤② |----|
口③④口 |--⑤-|
32
①①①① |①---|
②②②② |②-③④|
③口口④
口口口口

口口口口
⑥口口⑦
口⑤⑤口 |----|
口口口口 |⑤-⑥⑦|
33
口①①口 |----|
口口口口 |①-②③|
②口口③
口口口口

④⑥⑦⑤
口口口口
口口口口 |--④-|
口口口口 |⑤-⑥⑦|
34
口口口口 |--①-|
口①①口 |---②|
②口口③ |--③-|
口④⑤口 |④⑤--|
35
口口口口 |--①-|
④④①① |-②--|
②②⑤⑤ |③--④|
口口③③ |--⑤-|
36
①口口② |①②-③|
④口③⑤ |-④⑤-|
⑧⑦⑦⑧ |⑥-⑦-|
⑥⑨⑨⑥ |⑧-⑨-|
37
口①②口 |①②③④|
⑤③④⑥ |-⑤⑥-|
口口口口
口口口口

⑧口口⑨
口⑩⑪口
口⑦⑦口 |⑦-⑧-|
口口口口 |⑨-⑩⑪|
38
口⑤⑥口 |①②③④|
③口口④ |-⑤⑥-|
①口口②
口口口口

口口口口
口口口口
⑨⑧⑧⑨ |⑦-⑧-|
⑦⑩⑩⑦ |⑨-⑩-|
39
口①②口 |①②③④|
⑤③④⑥ |-⑤⑥-|
口口口口
口口口口

⑧⑧⑧⑧
口口口口
⑨⑦⑦口 |⑦---|
口口口口 |⑧-⑨-|
40
口口口口 |①-②③|
口⑧口口 |--④-|
口⑥⑦① |⑤-⑥⑦|
④②③⑤ |--⑧-|
41
②口口③ |①-②③|
④⑨①⑤ |-④⑤-|
口口⑥口 |⑥-⑦⑧|
⑦口口⑧ |--⑨-|
42
②④⑤③ |①-②③|
⑥口①⑦ |--④-|
⑧口口口 |⑤-⑥⑦|
口口口口 |--⑧-|
43
口口口口 |①-②③|
口⑥⑥口 |-④⑤-|
口④⑤① |⑥---|
⑦②③口 |--⑦-|
44
⑧⑥⑦口 |①-②③|
④口口⑤ |--④-|
口②③口 |⑤-⑥⑦|
口口口① |--⑧-|
45
口⑥⑦① |①-②③|
⑧④⑤⑧ |-④⑤-|
⑨②③口 |⑥⑦-⑧|
口口口口 |--⑨-|
46
④口⑤⑥ |①-②③|
⑧⑦⑦⑨ |--④-|
⑩②③① |⑤⑥-⑦|
口口口口 |-⑧⑨⑩|
47
⑦口口⑦ |①-②③|
口口口口 |-④⑤-|
口②③① |⑥---|
⑥④⑤⑥ |⑦---|
48
口④④口 |①-②③|
①口②③ |-④--|
口⑧⑧口 |⑤-⑥⑦|
⑤口⑥⑦ |-⑧--|
49
口④④口 |①-②③|
①口②③ |-④-⑤|
⑦⑨⑨⑧ |⑥-⑦⑧|
⑤口口⑥ |-⑨--|
50
口④④口 |①-②③|
①口②③ |-④--|
口⑥⑦口 |⑤-⑥⑦|
⑤口口⑧ |-⑧--|
51
口④④口 |①-②③|
①口②③ |-④--|
口口口口
口口口口

⑤口口⑤
⑥⑦口口
口口口口 |⑤---|
口口口口 |⑥-⑦-|
52
口⑤口口 |①---|
口口①口 |②-③④|
②口口② |----|
口③④口 |--⑤-|
53
口口①口 |①---|
②口口② |②-③④|
口③④口 |----|
口口口口 |----|
54
口⑤⑤口 |①---|
口③④口 |②-③④|
①口口① |----|
口②②口 |--⑤-|
55
⑤⑤⑤⑤ |①-②-|
①④④① |③-④-|
②口口② |--⑤-|
口③③口 |----|
56
口口口口 |①---|
口口①口 |②-③④|
②⑤⑤② |----|
口③④口 |--⑤-|
57
①①①① |①---|
②②②② |②-③④|
③口口④
口口口口

口口口口
⑥口口⑦
口⑤⑤口 |----|
口口口口 |⑤-⑥⑦|
58
口①①口 |----|
口口口口 |①-②③|
②口口③
口口口口

④⑥⑦⑤
口口口口
口口口口 |--④-|
口口口口 |⑤-⑥⑦|
59
口口口口 |--①-|
口①①口 |---②|
②口口③ |--③-|
口④⑤口 |④⑤--|


不确定度: 0

最終更新:2012年11月16日 18:49