Share The World
東方神起

EXTREME

Level: 7
BPM: 120
Notes: 752

1
口口口口 |----|
口口口口 |----|
①口口② |----|
口口口口 |①-②-|
2
①口口① |①---|
②①①② |②-③④|
③②②④
口③④口

⑤口口⑤
口口口口
口口口口 |----|
口口口口 |--⑤-|
3
口①①口 |①---|
①②②① |②-③④|
②③④②
③口口④

⑥口口⑦
⑤⑥⑦⑤
口口口口 |----|
口⑤⑤口 |⑤-⑥⑦|
4
口②③口 |----|
口口口口 |①-②③|
②①①③
①口口①

④口口④
④⑥⑦④
口⑥⑦口 |--④-|
口⑤⑤口 |⑤-⑥⑦|
5
口口口口 |--①-|
②口口③ |---②|
①口口① |--③-|
①④⑤① |④⑤--|
6
口口口口 |①---|
口口口口 |②---|
①口口②
口口口口

口口口口
口口口④
⑤口⑤口 |③-④-|
③口口⑥ |⑤⑥--|
7
①口口② |①②-③|
口口③口 |-④⑤-|
⑤③口④
口口口口

口口⑥⑦
口⑨⑧口
口⑧⑨口 |⑥-⑦-|
⑦⑥口口 |⑧-⑨-|
8
⑤⑤⑥⑥ |①②③④|
③口口④ |-⑤⑥-|
①口口②
口口口口

口口口口
⑩口口⑪
口口口口 |⑦-⑧-|
⑦⑧⑨⑦ |⑨-⑩⑪|
9
③口口口 |①②③④|
口①④口 |-⑤⑥-|
⑤④②⑥
口口口口

口口⑦⑧
口⑩⑨口
口⑨⑩口 |⑦-⑧-|
⑧⑦口口 |⑨-⑩-|
10
⑤⑤⑥⑥ |①②③④|
③口口④ |-⑤⑥-|
①口口②
口口口口

口口口口
⑧口口⑧
⑧口口⑧ |⑦---|
⑦口口⑦ |⑧---|
11
①口口② |①②-③|
口口③口 |-④⑤-|
⑤③口④
口口口口

口口⑥⑦
口⑨⑧口
口⑧⑨口 |⑥-⑦-|
⑦⑥口口 |⑧-⑨-|
12
⑤⑤⑥⑥ |①②③④|
③口口④ |-⑤⑥-|
①口口②
口口口口

口口口口
⑩口口⑪
口口口口 |⑦-⑧-|
⑦⑧⑨⑦ |⑨-⑩⑪|
13
③口口口 |①②③④|
口①④口 |-⑤⑥-|
⑤④②⑥
口口口口

口口⑦⑧
口⑩⑨口
口⑨⑩口 |⑦-⑧-|
⑧⑦口口 |⑨-⑩-|
14
⑤⑤⑥⑥ |①②③④|
③口口④ |-⑤⑥-|
①口口②
口口口口

口口口口
⑧口口⑧
⑨⑧⑧口 |⑦---|
⑦口口⑦ |⑧-⑨-|
15
口口口口 |①-②③|
口④口口 |--④-|
口口口①
口②③口

⑥口口⑦
⑩口⑤口
⑧口口⑨ |⑤-⑥⑦|
口口口口 |-⑧⑨⑩|
16
⑦口口⑧ |①-②③|
口⑥⑥① |-④⑤-|
口⑤③口 |⑥-⑦⑧|
⑨④②口 |--⑨-|
17
口⑥⑦口 |①-②③|
口②③口 |--④-|
④口口⑤ |⑤-⑥⑦|
⑧口口① |--⑧-|
18
口口口口 |①-②③|
口⑥⑥口 |-④⑤-|
⑦⑤③口 |⑥---|
口④②① |--⑦-|
19
口②③口 |①-②③|
⑥口口⑦ |--④-|
口口口① |⑤-⑥⑦|
⑧④⑤口 |--⑧-|
20
⑧⑥⑦⑧ |①-②③|
口⑤③口 |-④⑤-|
口④②口 |⑥⑦-⑧|
口⑨口① |--⑨-|
21
④口口口 |①-②③|
口口口口 |--④-|
②口口③
口口①口

口口口⑤
口⑥⑦口
口⑩口口 |⑤-⑥⑦|
口⑧⑨口 |-⑧⑨⑩|
22
⑥⑦⑦⑥ |①-②③|
⑦⑥⑥⑦ |-④⑤-|
⑤口①③ |⑥---|
④口口② |⑦---|
23
⑥⑤⑤⑦ |①-②③|
⑤⑧⑧⑤ |-④--|
①④④① |⑤-⑥⑦|
②①①③ |-⑧--|
24
⑥⑤⑤⑦ |①-②③|
⑤⑧⑧⑤ |-④--|
①④④① |⑤-⑥⑦|
②①①③ |-⑧--|
25
口⑨⑩口 |①-②③|
⑤⑦⑧⑥ |-④--|
①④④① |⑤⑥⑦⑧|
②①①③ |⑨⑩--|
26
口口口口 |①-②③|
口口口口 |-④--|
①④④①
②①①③

口⑤⑤口
⑤口口⑤
⑥口口⑦ |⑤---|
口口口口 |⑥-⑦-|
27
①口口① |①---|
②①①② |②-③④|
③②②④
口③④口

⑤口口⑤
口口口口
口口口口 |----|
口口口口 |--⑤-|
28
口①①口 |①---|
①②②① |②-③④|
②③④② |----|
③口口④ |----|
29
①口口① |①---|
①②②① |②-③④|
③②②④
③口口④

口口口口
⑤口口⑤
口口口口 |----|
口口口口 |--⑤-|
30
②③④② |①-②-|
口口口口 |③-④-|
口①①口
口④③口

口口口口
⑤口口⑤
口⑤⑤口 |--⑤-|
⑤口口⑤ |----|
31
①口口① |①---|
②①①② |②-③④|
③②②④
口③④口

口口口口
⑤口口⑤
口口口口 |----|
口口口口 |--⑤-|
32
②②②② |①---|
口①①口 |②-③④|
③③④④
①口口①

⑥口口⑦
⑤⑥⑦⑤
口口口口 |----|
口⑤⑤口 |⑤-⑥⑦|
33
口②③口 |----|
口口口口 |①-②③|
②①①③
①口口①

④口口④
④⑥⑦④
口⑥⑦口 |--④-|
口⑤⑤口 |⑤-⑥⑦|
34
口口口口 |--①-|
②口口③ |---②|
①④⑤① |--③-|
①口口① |④⑤--|
35
②口口③ |--①-|
口②③⑤ |-②--|
④口⑤① |③--④|
口④①口 |--⑤-|
36
①口口② |①②-③|
口口③口 |-④⑤-|
⑤③口④
口口口口

口口⑥⑦
口⑨⑧口
口⑧⑨口 |⑥-⑦-|
⑦⑥口口 |⑧-⑨-|
37
⑤⑤⑥⑥ |①②③④|
③口口④ |-⑤⑥-|
①口口②
口口口口

口口口口
⑩口口⑪
口口口口 |⑦-⑧-|
⑦⑧⑨⑦ |⑨-⑩⑪|
38
③口口口 |①②③④|
口①④口 |-⑤⑥-|
⑤④②⑥
口口口口

口口⑦⑧
口⑩⑨口
口⑨⑩口 |⑦-⑧-|
⑧⑦口口 |⑨-⑩-|
39
⑤⑤⑥⑥ |①②③④|
③口口④ |-⑤⑥-|
①口口②
口口口口

口口口口
⑧口口⑧
⑨⑧⑧口 |⑦---|
⑦口口⑦ |⑧-⑨-|
40
⑥口口⑦ |①-②③|
⑧④⑤口 |--④-|
口口口① |⑤-⑥⑦|
口②③口 |--⑧-|
41
⑦口口⑧ |①-②③|
口⑥⑥① |-④⑤-|
口⑤③口 |⑥-⑦⑧|
⑨④②口 |--⑨-|
42
口⑥⑦口 |①-②③|
口②③口 |--④-|
④口口⑤ |⑤-⑥⑦|
⑧口口① |--⑧-|
43
口口口口 |①-②③|
口⑥⑥口 |-④⑤-|
⑦⑤③口 |⑥---|
口④②① |--⑦-|
44
口②③口 |①-②③|
⑥口口⑦ |--④-|
口口口① |⑤-⑥⑦|
⑧④⑤口 |--⑧-|
45
⑧⑥⑦⑧ |①-②③|
口⑤③口 |-④⑤-|
口④②口 |⑥⑦-⑧|
口⑨口① |--⑨-|
46
④口口口 |①-②③|
口口口口 |--④-|
②口口③
口口①口

口口口⑦
口⑤⑥口
口⑩口口 |⑤⑥-⑦|
口⑧⑨口 |-⑧⑨⑩|
47
⑥⑦⑦⑥ |①-②③|
⑦⑥⑥⑦ |-④⑤-|
⑤口①③ |⑥---|
④口口② |⑦---|
48
⑥⑤⑤⑦ |①-②③|
⑤⑧⑧⑤ |-④--|
①④④① |⑤-⑥⑦|
②①①③ |-⑧--|
49
⑦⑤⑥⑧ |①-②③|
⑤⑨⑨⑥ |-④-⑤|
①④④① |⑥-⑦⑧|
②①①③ |-⑨--|
50
口⑧⑧口 |①-②③|
⑤⑥⑦⑤ |-④--|
①④④① |⑤-⑥⑦|
②①①③ |-⑧--|
51
口口口口 |①-②③|
口口口口 |-④--|
①④④①
②①①③

口⑤⑤口
⑤口口⑤
⑥口口⑦ |⑤---|
口口口口 |⑥-⑦-|
52
①口口① |①---|
②①①② |②-③④|
③②②④
口③④口

⑤口口⑤
口口口口
口口口口 |----|
口口口口 |--⑤-|
53
口①①口 |①---|
①②②① |②-③④|
②③④② |----|
③口口④ |----|
54
①口口① |①---|
①②②① |②-③④|
③②②④
③口口④

口口口口
⑤口口⑤
口口口口 |----|
口口口口 |--⑤-|
55
②③④② |①-②-|
口口口口 |③-④-|
口①①口
口④③口

口口口口
⑤口口⑤
口⑤⑤口 |--⑤-|
⑤口口⑤ |----|
56
①口口① |①---|
②①①② |②-③④|
③②②④
口③④口

口口口口
⑤口口⑤
口口口口 |----|
口口口口 |--⑤-|
57
②②②② |①---|
口①①口 |②-③④|
③③④④
①口口①

⑥口口⑦
⑤⑥⑦⑤
口口口口 |----|
口⑤⑤口 |⑤-⑥⑦|
58
口②③口 |----|
口口口口 |①-②③|
②①①③
①口口①

④口口④
④⑥⑦④
口⑥⑦口 |--④-|
口⑤⑤口 |⑤-⑥⑦|
59
口口口口 |--①-|
②口口③ |---②|
①④⑤① |--③-|
①口口① |④⑤--|


不确定度: 0

最終更新:2012年11月16日 18:48