Secret Word
GOLLBETTY

BASIC

Level: 2
BPM: 182-194
Notes: 197

全程BPM: 182-194飄忽不定
1
口口口口 |----|
口口口口 |----|
口口口口 |----|
口口口口 |----|
2
口口口口 |①---|
口②口① |----|
口口口口 |②---|
口口口口 |----|
3
口口口口 |①---|
口口口口 |----|
口口①口 |②---|
口口③② |③---|
4
口口口口 |①---|
口口口口 |----|
口②口口 |②---|
口①口口 |----|
5
口②口口 |①---|
口①口口 |----|
口口口口 |②---|
口口口口 |----|
6
①口口口 |①---|
②口口口 |----|
口口口口 |②---|
口口口口 |----|
7
口口口口 |①---|
口口口口 |----|
①口口口 |②---|
②③口口 |③---|
8
口口口口 |①---|
口口口口 |----|
口口②口 |②---|
口口①口 |----|
9
口口②口 |①---|
口口①口 |----|
口口口口 |②---|
口口口口 |----|
10
口口口① |①---|
口口口② |----|
口口口口 |②---|
口口口口 |----|
11
口口口口 |①---|
口口口口 |----|
口口口① |②---|
口口③② |③---|
12
口口口口 |①---|
口口口口 |----|
口①①口 |----|
口口口口 |----|
13
口口口口 |----|
口②②口 |----|
口①①口 |①---|
口口口口 |②---|
14
口①①口 |①---|
口口口口 |----|
口口口口 |----|
口口口口 |----|
15
口口口口 |①---|
口口口口 |----|
口①②口 |②---|
口口口口 |----|
16
口口口口 |①---|
口口口口 |----|
口②口口 |②---|
口①口口 |----|
17
口②口口 |①---|
口①口口 |----|
口口口口 |②---|
口口口口 |----|
18
①口口口 |①---|
②口口口 |----|
口口口口 |②---|
口口口口 |----|
19
口口口口 |①---|
口口口口 |----|
①口口口 |----|
口口口口 |----|
20
口口口口 |①---|
口口口口 |----|
口口口② |----|
口①①口 |--②-|
21
口口口② |--①-|
口口①口 |--②-|
口口口口 |----|
口口口口 |----|
22
口①①口 |①---|
②口口口 |----|
口口口口 |----|
口口口口 |--②-|
23
口口口口 |--①-|
口口口口 |--②-|
口①口口 |----|
②口口口 |----|
24
口口口口 |①---|
口口口口 |----|
口口口② |----|
口①①口 |--②-|
25
口口口② |--①-|
口口①口 |--②-|
口口口口 |----|
口口口口 |----|
26
②①①口 |①---|
口口口口 |----|
口口口口 |----|
口口口口 |--②-|
27
口口口口 |--①-|
口①口口 |--②-|
②口口口 |----|
口口口口 |----|
28
口口口口 |①---|
口口口口 |----|
口口口② |----|
口①①口 |--②-|
29
口口口② |--①-|
口口①口 |--②-|
口口口口 |----|
口口口口 |----|
30
②①①口 |①---|
口口口口 |----|
口口口口 |----|
口口口口 |--②-|
31
口口口口 |--①-|
口①口口 |--②-|
②口口口 |----|
口口口口 |----|
32
口口口口 |①---|
口口口口 |----|
口口口② |----|
口①①口 |--②-|
33
口口口② |--①-|
口口①口 |--②-|
口口口口 |----|
口口口口 |----|
34
口①①口 |①---|
口②②口 |----|
口口口口 |②---|
口口口口 |----|
35
口口口口 |①---|
口口口口 |----|
口①①口 |②---|
口②②口 |----|
36
口口口口 |①---|
口口口口 |----|
①口口① |----|
口口口口 |----|
37
口口口口 |①---|
口口口口 |----|
口①①口 |----|
口口口口 |----|
38
口口口口 |①---|
①②口口 |----|
口口口口 |②---|
口口口口 |----|
39
口口口口 |①---|
口口①② |----|
口口口口 |②---|
口口口口 |----|
40
①口口① |①---|
口口口口 |----|
口口口口 |----|
口口口口 |----|
41
口①①口 |①---|
口口口口 |----|
口口口口 |----|
口口口口 |----|
42
口口口口 |①---|
口口②① |----|
口口口口 |②---|
口口口口 |----|
43
口口口口 |①---|
②①口口 |----|
口口口口 |②---|
口口口口 |----|
44
口口口口 |①---|
口口口口 |----|
①口口① |----|
口口口口 |----|
45
口口口口 |①---|
口口口口 |----|
口①①口 |----|
口口口口 |----|
46
口口口口 |①---|
口口口口 |----|
①②口口 |②---|
口口口口 |----|
47
口口口口 |①---|
口口口口 |----|
口口①② |②---|
口口口口 |----|
48
口口口口 |①---|
口口口口 |----|
口口口口 |----|
口①①口 |----|
49
口口口口 |①---|
口口口口 |----|
口①①口 |----|
口口口口 |----|
50
口④④口 |①---|
①③③① |--②-|
口②②口 |--③-|
口口口口 |--④-|
51
口口口口 |----|
口口口口 |----|
口口口口 |----|
口口口口 |----|
52
口口口口 |①---|
口口口口 |----|
口①②口 |②---|
口口口口 |----|
53
③②②③ |①---|
口①①口 |②---|
口口口口 |③---|
口口口口 |----|
54
口口口口 |①---|
①②口口 |----|
口口口口 |②---|
口口口口 |----|
55
口口口口 |①---|
口口口口 |----|
口口①② |②---|
口口口口 |----|
56
口口口口 |①---|
口口口口 |②---|
口③②口 |----|
口口①口 |③---|
57
口口口② |①---|
口①口口 |----|
口口口口 |②---|
口口口口 |----|
58
②口①口 |①---|
口口口口 |----|
口口口口 |②---|
口口口口 |----|
59
口①口口 |①---|
口口口口 |----|
口口口口 |----|
口口口口 |----|
60
口口口口 |①---|
口口口口 |----|
口①②口 |②---|
口口口口 |----|
61
③②②③ |①---|
口①①口 |②---|
口口口口 |③---|
口口口口 |----|
62
口口口口 |①---|
①②口口 |----|
口口口口 |②---|
口口口口 |----|
63
口口口口 |①---|
口口口口 |----|
口口①② |②---|
口口口口 |----|
64
口口口口 |①---|
口口口口 |----|
口②②口 |②---|
口①①口 |----|
65
口②②口 |①---|
口①①口 |----|
口口口口 |②---|
口口口口 |----|
66
口口口口 |①---|
①②②① |----|
口口口口 |②---|
口口口口 |----|
67
口口口口 |①---|
口口口口 |----|
口①①口 |②---|
口③②口 |③---|
68
口口口口 |----|
口口口口 |----|
口口口口 |----|
口口口口 |----|
69
口口口口 |----|
口①②口 |----|
口口口口 |①---|
口口口口 |②---|
70
口口口口 |----|
口口口口 |----|
口口口口 |----|
口口口口 |----|
71
口口口口 |①---|
口口口口 |----|
口②②口 |②---|
口①①口 |----|
72
②口口口 |①---|
口①①口 |----|
口口口口 |②---|
口口口口 |----|
73
口①②口 |①---|
口口口口 |----|
口口口口 |②---|
口口口口 |----|
74
口②②① |①---|
口口口口 |----|
口口口口 |②---|
口口口口 |----|
75
口口口口 |①---|
①②③④ |②---|
口口口口 |③---|
口口口口 |④---|
76
口口口口 |----|
口口口口 |----|
口口口口 |----|
口口口口 |----|
77
口口口口 |----|
口口口口 |----|
口口口口 |----|
口口口口 |----|
78
口口口口 |----|
口口口口 |----|
口口口口 |----|
口口口口 |----|
79
口口口口 |----|
口口口口 |----|
口口口口 |----|
口口口口 |----|
80
口口口口 |①---|
口口口口 |②---|
口③②口 |----|
口口①口 |③---|
81
口口口口 |①---|
口①口口 |----|
口口口口 |----|
口口口口 |----|
82
口口口口 |①---|
①②②① |----|
口口口口 |②---|
口口口口 |----|
83
口口口口 |①---|
口口口口 |----|
口①①口 |②---|
口③②口 |③---|


不确定度: 0

最終更新:2012年11月16日 18:48